<?xml version="1.0" standalone="no"?>
<!DOCTYPE svg PUBLIC "-//W3C//DTD SVG 1.1//EN" "http://www.w3.org/Graphics/SVG/1.1/DTD/svg11.dtd" >
<svg>
<metadata>
Created by FontForge 20120731 at Mon Jun 19 21:08:54 2017
 By www
Copyright (c) 2015 by Julia Martinez Diana, Antipixel. All rights reserved.
</metadata>
<defs>
<font id="LeOslerW01-SharpRegular" horiz-adv-x="458" >
  <font-face 
    font-family="LeOslerW01-SharpRegular"
    font-weight="400"
    font-stretch="normal"
    units-per-em="1000"
    panose-1="2 0 0 0 0 0 0 0 0 0"
    ascent="800"
    descent="-200"
    x-height="625"
    cap-height="740"
    bbox="-21 -352 965.692 1084"
    underline-thickness="50"
    underline-position="-125"
    unicode-range="U+0020-2122"
  />
<missing-glyph horiz-adv-x="256" 
 />
    <glyph glyph-name=".notdef" horiz-adv-x="256" 
 />
    <glyph glyph-name=".null" horiz-adv-x="0" 
 />
    <glyph glyph-name="nonmarkingreturn" horiz-adv-x="333" 
 />
    <glyph glyph-name="space" unicode=" " horiz-adv-x="256" 
 />
    <glyph glyph-name="exclam" unicode="!" horiz-adv-x="238" 
d="M118 748q2 -43 3 -92t2 -99l2 -100t3 -96q2 -39 2.5 -80.5t-0.5 -81.5q-6 -1 -20 -2t-30.5 -1t-34 0.5t-30.5 1.5q1 140 -2.5 281.5t-3.5 272.5q32 1 60.5 0t48.5 -4zM73 128q26 5 41.5 -4.5t22.5 -26.5t6.5 -38t-8 -39t-21 -29t-31.5 -9q-33 4 -59 23t-23 56
q2 29 21.5 45t50.5 22z" />
    <glyph glyph-name="quotedbl" unicode="&#x22;" horiz-adv-x="357" 
d="M124 827q2 -47 2.5 -92.5t-1.5 -87.5t-6 -78t-10 -64q-9 1 -23 1.5t-29.5 2t-30 3t-25.5 3.5q1 25 3 44.5t4 36t3.5 33.5t1.5 38q0 17 0.5 39.5l1 45t0.5 42.5v33q3 -1 18.5 -1t34.5 1t35 1t21 -1zM280 823q5 -30 7.5 -70.5t2.5 -82.5t-1 -81.5t-4 -68.5q-44 -3 -71 -3.5
t-43 3.5q3 32 4.5 72t2 81.5t-0.5 81.5t-3 72h27t30 -0.5t28 -1.5t21 -2z" />
    <glyph glyph-name="numbersign" unicode="#" horiz-adv-x="665" 
d="M247 733q-3 -46 -5 -95.5t0 -92.5q13 -2 32 -2.5t30 3.5q1 22 1.5 39t1 33.5t1.5 35.5t3 46q28 -1 60.5 -1.5t52.5 -2.5q0 -29 -1 -66t1 -79q34 0 72.5 0.5t70.5 -6.5q-2 -21 -2.5 -50t-2.5 -52q-24 2 -62 0.5t-73 -3.5q-5 -23 -1.5 -52.5t3.5 -55.5q14 0 31.5 1t36 1
t36 -1.5t32.5 -5.5q-4 -29 -5 -57.5t-6 -45.5q-26 1 -58.5 -1.5t-61.5 -4.5v-110t-2 -103q-8 -2 -23.5 -3t-32.5 -2t-33.5 -1.5t-26.5 -0.5q0 28 0.5 53.5t0.5 50.5t-0.5 51.5t-2.5 55.5h-34t-33 -5v-182q-11 0 -25 -1t-30 -2t-31 -1t-27 2v177q-19 0 -40 -1t-56 -2
q-5 23 -5 51.5v59.5q20 4 48 4t51 5q-2 29 -2.5 54.5t-2.5 52.5q-10 -2 -24 -2.5t-30 -1l-32 -1t-29 -1.5q1 20 -2 51.5t-4 57.5q24 6 57 5.5t61 4.5v51t1 54t3 52t5 44q26 1 56.5 -0.5t57.5 -1.5zM243 432q-2 -22 0 -54t4 -58q16 -2 33 0t31 4q1 27 -0.5 53.5t-3.5 55.5
q-17 3 -32 1.5t-32 -2.5z" />
    <glyph glyph-name="dollar" unicode="$" horiz-adv-x="499" 
d="M309 540q-8 50 -16.5 73t-28.5 37q-18 13 -35 14t-32.5 -6t-28 -21t-21.5 -30q-13 -25 -13.5 -48.5t7.5 -46t23.5 -43t33.5 -38.5q35 -33 70 -55.5t64 -47t48 -57.5t22 -86q2 -38 -6.5 -73.5t-25.5 -58.5q-20 -28 -49 -45t-61 -26q-2 -27 -1.5 -62t-0.5 -63
q-17 -1 -35 -1q-15 0 -33.5 -0.5t-34.5 0.5q-3 41 -2.5 70.5t2.5 49.5q-38 5 -69 20.5t-46 39.5q-16 25 -24 47t-11 44t-3.5 45.5t-1.5 50.5q10 1 24.5 1.5t29 0.5t28.5 -0.5t25 -2.5q1 -30 2.5 -58.5t19.5 -50.5q12 -14 30 -20t37.5 -4.5t36.5 9.5t28 21q21 26 21 59
q0 24 -17.5 44t-43.5 39.5t-56.5 39.5t-57.5 45q-34 32 -57.5 72t-33.5 83.5t-5 88t28 85.5q23 42 60 71t82 38v73q20 1 39 2q16 1 33.5 0t30.5 -4l3 -80q28 -11 54 -31q42 -32 60 -79.5t21 -113.5q-29 -7 -60 -9.5t-53 -1.5z" />
    <glyph glyph-name="percent" unicode="%" horiz-adv-x="729" 
d="M540 728q-32 -89 -73.5 -188.5t-86.5 -205.5q-45 -105 -85.5 -197.5t-78.5 -185.5q-25 6 -54 16t-52 18q36 102 79 196t81 189q40 97 82 199.5t84 201.5q32 -9 61 -21.5t43 -21.5zM128 662q131 9 140 -134q4 -55 -16 -90.5t-54 -46.5q-27 -9 -56.5 -5t-56 16.5
t-46.5 32.5t-27 44q-11 38 -7.5 70.5t18.5 56.5t42 38.5t63 17.5zM106 509q6 -15 24 -23t32 -4q8 2 13 12t6 23t-2.5 25.5t-13.5 19.5q-12 8 -25.5 8t-23.5 -7.5t-14 -21t4 -32.5zM536 367q36 -3 63 -17.5t42 -38.5t18 -56.5t-7 -70.5q-7 -24 -27 -44t-46.5 -32.5t-56 -16.5
t-56.5 5q-34 11 -54 46.5t-16 90.5q9 143 140 134zM558 214q7 19 3.5 32.5t-13.5 21t-23.5 7.5t-25.5 -8q-10 -7 -13.5 -19.5t-2.5 -25.5t6 -23t13 -12q14 -4 32 4t24 23z" />
    <glyph glyph-name="ampersand" unicode="&#x26;" horiz-adv-x="592" 
d="M286 544q-2 18 -4.5 34.5t-6 30.5t-9.5 23.5t-16 12.5q-28 8 -50.5 2t-33.5 -23q-18 -27 -17 -62t14.5 -72.5t36 -75.5t46.5 -72t45.5 -61.5t33.5 -44.5q5 17 8 41.5t0 41.5h-16.5t-16.5 1q-5 29 -3 49.5t1 50.5q23 -1 49 -0.5t51 1t47 0.5t39 -2q-1 -12 -1.5 -26
t-1 -27.5t-2 -25.5t-3.5 -19q-8 -1 -14.5 -1.5t-14.5 -0.5q-3 -50 -12 -99t-26 -84q23 -28 49 -49t52 -50q-27 -28 -43.5 -44t-32.5 -24q-24 14 -44 32t-41 38q-19 -19 -41 -30.5t-46 -17.5t-49.5 -7.5t-50.5 0.5q-48 3 -81.5 26t-52.5 58.5t-24.5 79t1.5 88t26 85t49 69.5
q-20 31 -32.5 72t-14 83.5t10 83.5t39.5 73q37 42 95 52t121 -13q26 -10 42.5 -29.5t26.5 -44t14.5 -53t6.5 -55.5q-42 -10 -103 -15zM146 286q-15 -20 -24.5 -49t-8.5 -57t14 -51.5t42 -32.5q6 -2 18.5 -3.5t27.5 1t30.5 9.5t27.5 22q-32 39 -63.5 81t-63.5 80z" />
    <glyph glyph-name="quotesingle" unicode="'" horiz-adv-x="209" 
d="M124 827q2 -47 2.5 -92.5t-1.5 -87.5t-6 -78t-10 -64q-9 1 -23 1.5t-29.5 2t-30 3t-25.5 3.5q1 25 3 44.5t4 36t3.5 33.5t1.5 38q0 17 0.5 39.5l1 45t0.5 42.5v33q3 -1 18.5 -1t34.5 1t35 1t21 -1z" />
    <glyph glyph-name="parenleft" unicode="(" horiz-adv-x="290" 
d="M216 736q-7 -13 -15 -30t-14 -32q-39 -95 -60.5 -196.5t-9.5 -202.5q9 -79 32 -145t52 -130q-17 -15 -45 -24t-51 -18q-21 30 -38.5 68.5t-30.5 80.5t-21 84.5t-11 80.5q-5 70 -1.5 125.5t14 105.5t27 98.5t38.5 104.5q3 7 7.5 16.5t9 18.5t9 17.5t7.5 13.5
q18 -6 48 -15.5t53 -20.5z" />
    <glyph glyph-name="parenright" unicode=")" horiz-adv-x="286" 
d="M98 784q30 -34 50.5 -80.5t33.5 -100.5t18.5 -114t5.5 -121q0 -50 -6 -105t-17 -109.5t-26 -106t-33 -94.5q-14 -1 -29.5 2t-30.5 6.5t-28 8t-22 6.5q34 88 56 189.5t23 201.5q1 118 -24 212.5t-67 170.5q21 11 44.5 20t51.5 14z" />
    <glyph glyph-name="asterisk" unicode="*" horiz-adv-x="477" 
d="M253 843q2 -24 2.5 -48t3.5 -44q23 8 45.5 21t42.5 21q14 -14 28.5 -35t25.5 -44q-11 -14 -27 -24t-33 -18.5t-33.5 -17t-29.5 -20.5q7 -19 17 -35.5t20.5 -32.5t20 -32.5t16.5 -35.5q-8 -8 -20 -13.5t-25.5 -10.5t-26.5 -9.5t-23 -8.5q-15 29 -28 53.5t-32 48.5
q-20 -19 -37 -42t-27 -50q-26 5 -49.5 17.5t-47.5 20.5q5 26 14.5 43t20 30t20.5 25t18 29q-14 11 -30.5 19t-32 17t-29.5 20t-22 28q8 16 24.5 38t39.5 35q20 -11 41 -26.5t43 -24.5q4 25 1 55t-1 53q10 1 25.5 2t31.5 1t30.5 -1t22.5 -4z" />
    <glyph glyph-name="plus" unicode="+" horiz-adv-x="571" 
d="M301 565q4 -42 0.5 -82.5t-1.5 -83.5h47.5h50h47.5h40q2 -23 0 -54t-3 -60q-19 -2 -43 -2h-49.5t-49.5 -0.5t-43 -1.5q-4 -51 -2.5 -94t-3.5 -86q-5 -2 -22 -2.5t-36.5 -0.5t-36.5 0.5t-22 2.5q2 41 2.5 81.5t2.5 97.5q-46 4 -92 2.5t-82 -6.5v15t-1 32t-1.5 36.5
t-0.5 28.5q18 6 42 8t49 3t49 1h42q2 42 3 88.5t3 77.5q11 2 25.5 2.5t29.5 0t29.5 -1.5t26.5 -2z" />
    <glyph glyph-name="comma" unicode="," horiz-adv-x="269" 
d="M65 -166q-7 5 -16.5 13.5t-19 19t-17.5 20.5t-13 18q19 15 38 32t20 49q-21 2 -35.5 20t-19.5 37q-6 25 3 46.5t25.5 36t37 21.5t37.5 4q31 -5 48.5 -24t24 -45.5t4 -57.5t-11.5 -59q-5 -16 -14 -34.5t-22.5 -36.5t-30.5 -34t-38 -26z" />
    <glyph glyph-name="hyphen" unicode="-" horiz-adv-x="599" 
d="M519 395l2 -52t-1 -51q-14 -5 -32.5 -5.5t-32.5 -1.5q-112 -6 -228 -6.5t-227 8.5q1 20 1 51t5 57q112 -6 221 -5t227 4q5 0 14.5 0.5t20 1.5t19 0.5t11.5 -1.5z" />
    <glyph glyph-name="period" unicode="." horiz-adv-x="269" 
d="M96 157q25 0 40.5 -11t22.5 -28t6.5 -37t-7 -38.5t-17.5 -32t-25 -17.5q-23 -7 -47 -3t-41 16t-24.5 31.5t1.5 45.5q11 29 34.5 51.5t56.5 22.5z" />
    <glyph glyph-name="slash" unicode="/" horiz-adv-x="439" 
d="M405 743q-29 -90 -67 -190.5t-80 -208.5q-32 -84 -65 -168t-65 -168q-5 -14 -10 -25t-11 -27q-26 5 -55 13.5t-52 16.5q5 17 9 29t8 22.5t7.5 20.5t8.5 23q9 24 19.5 48t19.5 49q19 51 37.5 99t37.5 99q36 99 75 202.5t77 203.5q32 -8 62 -19.5t44 -19.5z" />
    <glyph glyph-name="zero" unicode="0" horiz-adv-x="451" 
d="M270 708q39 -35 55.5 -88.5t27.5 -118.5q4 -29 5.5 -57t3 -54t4 -49.5t9.5 -42.5q1 -17 0.5 -31.5t-1.5 -31.5q-4 -58 -20 -105.5t-45 -80.5q-26 -30 -64 -44.5t-78 -11.5t-76 26t-57 69q-14 32 -21 61.5t-9.5 58.5t-1.5 59t3 63q5 98 22.5 184.5t58.5 150.5
q18 30 39.5 49t44.5 25.5t48.5 -0.5t51.5 -31zM177 602q-14 -22 -25 -53t-19.5 -68t-14 -77.5t-6.5 -80.5q-1 -28 -1.5 -55.5t2 -53.5t8.5 -48.5t17 -40.5q9 -16 22 -22.5t26 -5.5t25.5 9t21.5 21q15 21 21 51t10 62q2 13 2 26.5v27.5q-13 42 -13 94.5t-3 103.5
q-2 38 -9.5 71t-27.5 54q-9 11 -18 5.5t-18 -20.5z" />
    <glyph glyph-name="one" unicode="1" horiz-adv-x="373" 
d="M159 705q2 -1 6.5 -1.5t6.5 -2.5q0 7 -0.5 14t-0.5 14q51 4 101 6q11 -123 17.5 -258.5t3.5 -272.5q-1 -49 -2 -101t-6 -103q-26 -2 -53 -1t-56 2q4 51 5 103t2 101q1 63 0.5 129.5t-2.5 133.5q-17 -41 -35.5 -84.5t-41.5 -100.5q-9 3 -21.5 8t-27 10.5t-29 11.5
t-26.5 11q23 59 42 103t37 85.5t37 86.5t43 106z" />
    <glyph glyph-name="two" unicode="2" horiz-adv-x="483" 
d="M162 127q62 -11 130.5 -20t123.5 -18q-3 -14 -6.5 -29.5t-6.5 -30.5t-6 -28t-6 -21q-94 5 -195.5 22.5t-195.5 42.5q1 35 7 63t10 48q5 0 11 -1t11 -1q24 51 56.5 100.5t64 100.5t56.5 105t33 114q6 43 -13.5 54.5t-59.5 7.5q-25 -2 -51.5 -9t-49.5 -12l-10.5 56t-6.5 49
q20 10 44.5 16t50.5 11q46 9 92 4.5t78 -30.5t43 -69t3 -96q-9 -62 -32.5 -117.5t-53.5 -108t-62.5 -102.5t-58.5 -101z" />
    <glyph glyph-name="three" unicode="3" horiz-adv-x="406" 
d="M257 358q18 -14 33 -34t25.5 -44.5t16.5 -51t8 -51.5q3 -57 -27 -104t-99 -76q-39 -17 -90 -21.5t-99 6.5q0 5 1.5 22t3 35.5t3 35t2.5 20.5q12 -3 28 -5t32 -2t32 2.5t28 9.5q31 17 45.5 37t15.5 41q1 24 -10 51t-37 48q-18 15 -42.5 18t-70.5 1q-12 -1 -25.5 -0.5
t-23.5 1.5q-1 7 -1 22v32.5t0.5 33t1.5 23.5q11 2 20.5 1.5t19.5 0.5q38 4 71.5 10.5t59.5 23.5q19 12 30.5 34.5t14 47t-5.5 48.5t-27 39q-18 13 -39.5 18.5t-44 6.5t-44.5 0.5t-41 1.5q-1 8 -1.5 22.5t-0.5 30.5t0.5 31.5t0.5 24.5q19 4 39 3.5t34 -0.5q105 0 173.5 -46.5
t83.5 -132.5q7 -41 0.5 -72.5t-21.5 -56.5t-34.5 -46t-38.5 -40z" />
    <glyph glyph-name="four" unicode="4" horiz-adv-x="487" 
d="M311 752q-5 -17 -9.5 -30.5t-7.5 -29.5q12 0 23.5 -1t19.5 -2q4 -36 5.5 -75.5t1.5 -79.5t-0.5 -79t-0.5 -74q22 0 44 1.5t40 1.5q2 -31 2.5 -56.5t0.5 -51.5q-20 -4 -45.5 -5.5t-46.5 -2.5q0 -30 -2 -66t-4.5 -72.5t-4.5 -71t-2 -60.5q-26 -5 -56.5 -2.5t-57.5 2.5
q0 26 1.5 60t4 70t4 71t1.5 64h-50.5h-56h-56h-50.5q-2 7 -3.5 23t-2.5 33t-2 32.5t-1 21.5q2 1 4.5 0.5t5.5 0.5q51 104 104.5 206t97.5 214q10 -5 25 -10t30 -11t27 -11.5t17 -9.5zM140 374q17 2 40.5 1.5t46.5 0.5q1 39 3.5 86t-3.5 88q-22 -44 -46 -87.5t-41 -88.5z" />
    <glyph glyph-name="five" unicode="5" horiz-adv-x="446" 
d="M160 729q54 0 112.5 -2.5t109.5 -4.5q1 -34 -1 -57t-6 -49q-52 -2 -107.5 1t-109.5 1q-4 -18 -5.5 -39t-2 -43t-0.5 -43.5v-39.5q37 -7 70 -22.5t58.5 -39.5t41.5 -57t20 -75q7 -80 -21 -133.5t-77.5 -84t-113 -40.5t-128.5 -3q1 6 1 21v31.5v32v23.5q34 -3 75.5 2
t76 20.5t55.5 43.5t13 71q-5 25 -21.5 46.5t-41 36.5t-55.5 23t-65 6q-2 100 3 202.5t15 197.5q22 -1 49 -2t46 -1q6 0 7.5 -7.5t1.5 -15.5z" />
    <glyph glyph-name="six" unicode="6" horiz-adv-x="480" 
d="M387 722q6 -27 7.5 -55t4.5 -51q-26 -2 -54 -7t-51 -15q-46 -19 -74.5 -52.5t-46.5 -80.5q45 4 83 -5.5t68 -30.5t51 -51t32 -67q13 -44 13 -94.5t-16 -96.5t-47 -80.5t-79 -44.5q-60 -14 -112.5 -1t-90.5 47.5t-58.5 88t-15.5 121.5q8 124 50 224q16 37 35.5 71.5
t44.5 64t56 53.5t69 39q27 11 64.5 18t66.5 5zM244 100q25 6 39 25t20 43t5 49.5t-6 44.5q-8 30 -27 52.5t-44 34t-52.5 9t-52.5 -22.5q-16 -41 -17 -86.5t13.5 -82t45 -57t76.5 -9.5z" />
    <glyph glyph-name="seven" unicode="7" horiz-adv-x="424" 
d="M358 743q-11 -88 -21 -184t-20 -193.5t-21 -192.5t-25 -180q-9 -1 -23.5 -0.5t-30 1.5t-30 2t-23.5 2q5 48 10.5 91t11 85t10 85t7.5 91q-23 1 -49.5 1.5t-53 0.5t-51.5 0.5t-46 1.5q-3 23 -2 52.5t-1 58.5q23 1 50.5 1t56 0.5t56.5 0.5t52 1q2 14 4 35.5t4 44t4 43.5
t4 36q-46 2 -83.5 0.5t-69.5 -1.5q-4 27 -3.5 52t1.5 57q34 2 80.5 3.5t89.5 2.5q1 3 1 5t2 7q9 -1 22.5 -1.5t28.5 -2t30.5 -3t27.5 -3.5z" />
    <glyph glyph-name="eight" unicode="8" horiz-adv-x="491" 
d="M344 403q10 -21 21.5 -38.5t22 -37t18.5 -44.5t13 -61q12 -97 -23 -168t-122 -99q-59 -19 -107.5 -17.5t-83.5 23.5t-56 65t-24 109q-2 48 10 87t34 71.5t51.5 60t61.5 52.5q-15 9 -30.5 22.5t-28 30.5t-21 37.5t-9.5 43.5q7 18 8.5 42.5t5 51t12 54t29.5 51.5
q18 22 50 30.5t63 8.5q39 0 72 -15.5t56 -39.5t36 -53.5t13 -56.5q0 -71 -20 -121.5t-52 -88.5zM310 600q-2 13 -9.5 27.5t-18.5 26t-24.5 18.5t-26.5 5q-21 -3 -29 -18t-10.5 -35.5t-3.5 -44t-8 -42.5q11 -25 30 -42t48 -25q12 8 23 22.5t18.5 32.5t10.5 37.5t0 37.5z
M244 333q-24 -17 -48 -35.5t-43 -41.5t-30.5 -52t-11.5 -66q0 -66 36 -92t97 3q21 10 36 28.5t24 42t10.5 50.5t-4.5 54q-7 33 -24 62t-37 52q-2 0 -1 -1q-3 -1 -4 -4z" />
    <glyph glyph-name="nine" unicode="9" horiz-adv-x="523" 
d="M-5 42q11 21 25 46t31 39q23 -21 54 -31.5t62 -10.5t58 10.5t44 32.5q56 74 56 180q-17 -9 -43.5 -12.5t-55.5 -2.5t-57 6.5t-47 15.5q-41 20 -66.5 53.5t-36.5 73.5t-9 83.5t16 85.5q25 75 88 113q18 10 41.5 16t48.5 7.5t49.5 -2t42.5 -12.5q43 -21 74 -56.5t50 -83
t26 -106t4 -124.5q-5 -88 -24 -167.5t-65 -142.5q-26 -35 -72.5 -55.5t-99.5 -23.5t-105.5 13.5t-88.5 54.5zM183 626q-20 -8 -30.5 -28t-18.5 -41q-8 -24 -7.5 -46t8 -40.5t19.5 -32.5t27 -22q15 -9 36.5 -11t43 0.5t40.5 9t30 16.5q5 66 -16 113t-56 76q-17 14 -37.5 13.5
t-38.5 -7.5z" />
    <glyph glyph-name="colon" unicode=":" horiz-adv-x="269" 
d="M81 585q7 3 15 1.5t15 -1.5q15 0 27 -12t18 -30.5t6.5 -40.5t-6.5 -43q-6 -18 -25 -24.5t-41 -4.5t-42 11t-28 21q-12 18 -10.5 37t11.5 35.5t26.5 29.5t33.5 21zM82 156q0 1 2 1q27 2 45 -10.5t27 -33t8.5 -45.5t-9.5 -49q-9 -22 -32.5 -29t-49 -3t-46.5 18t-24 34
q-4 23 1.5 41t16.5 32t26.5 24.5t31.5 19.5h3z" />
    <glyph glyph-name="semicolon" unicode=";" horiz-adv-x="269" 
d="M74 598q27 6 47.5 -2.5t34 -26t18.5 -40t0.5 -44t-19 -38t-40.5 -21.5q-17 -3 -36.5 1.5t-36 14t-27 23t-10.5 27.5q0 42 18 70t51 36zM65 -166q-7 5 -16.5 13.5t-19 19t-17.5 20.5t-13 18q19 15 38 32t20 49q-21 2 -35.5 20t-19.5 37q-6 25 3 46.5t25.5 36t37 21.5
t37.5 4q31 -5 48.5 -24t24 -45.5t4 -57.5t-11.5 -59q-5 -16 -14 -34.5t-22.5 -36.5t-30.5 -34t-38 -26z" />
    <glyph glyph-name="less" unicode="&#x3c;" horiz-adv-x="426" 
d="M347 532q-24 -32 -54.5 -66.5t-61.5 -64.5q-19 -19 -36.5 -34.5t-31.5 -29.5q17 -26 38.5 -48t44.5 -42t46.5 -40t44.5 -42q-27 -29 -46.5 -45.5t-36.5 -32.5q-37 27 -70 58t-64 64.5t-61 68t-60 67.5q42 44 75.5 73t62.5 57q30 29 59.5 60t67.5 71q18 -14 38.5 -32.5
t44.5 -41.5z" />
    <glyph glyph-name="equal" unicode="=" horiz-adv-x="574" 
d="M492 312q0 -5 -1 -21t-2.5 -34.5t-2.5 -34t-2 -18.5q-28 -2 -57.5 -1.5t-64.5 -2.5q-83 -8 -175.5 -8.5t-175.5 4.5q-5 23 -5 52t1 55q93 -1 176.5 0.5t169.5 7.5q10 1 26.5 1.5t35.5 1t39 0t38 -1.5zM467 486q1 -7 1.5 -23.5t0.5 -34.5t-0.5 -32t-0.5 -17
q-51 -1 -107 -1h-112.5t-112 -1t-105.5 -3q-1 5 -2 19.5t-2.5 31.5t-2 32.5t0.5 21.5q50 4 106 6.5t113.5 3t114.5 -0.5t108 -2z" />
    <glyph glyph-name="greater" unicode="&#x3e;" horiz-adv-x="401" 
d="M340 352q-59 -74 -122.5 -143.5t-123.5 -143.5q-26 14 -47.5 35t-43.5 38q40 55 85.5 103.5t86.5 102.5q-20 24 -42 46t-44.5 43l-45 42t-43.5 44q20 23 39.5 44t37.5 35q37 -25 70.5 -56t65 -63.5t63 -65.5t64.5 -61z" />
    <glyph glyph-name="question" unicode="?" horiz-adv-x="484" 
d="M146 151q4 22 13 50t19.5 56.5t21 53t18.5 39.5q26 48 44.5 100t21.5 115q1 23 -8 43.5t-32 26.5q-30 6 -53.5 -3t-43 -26t-36.5 -37.5t-33 -38.5q-17 13 -28 24t-19 20t-14.5 18t-13.5 19q18 26 39.5 50.5t48 44t58 33t70.5 17.5q41 4 76 -7.5t59.5 -35t38 -55.5
t12.5 -69q-1 -41 -9 -77.5t-19.5 -70t-25 -65.5t-26.5 -62q-20 -46 -40 -91.5t-33 -88.5q-12 -3 -26 -1.5t-28 5t-27.5 7.5t-24.5 6zM219 92q18 -5 28.5 -21t8.5 -42q-1 -27 -16 -42.5t-35 -20t-41.5 0t-36 16.5t-18.5 31.5t11 43.5q17 28 43.5 35t55.5 -1z" />
    <glyph glyph-name="at" unicode="@" horiz-adv-x="833" 
d="M658 525q24 -28 40 -70.5t22 -90t0.5 -96t-25.5 -89t-55 -69.5t-88 -38q-26 -5 -52.5 -2.5t-50.5 15.5q-8 5 -11.5 13t-10.5 13q-14 -5 -24 -13t-23 -13q-31 -12 -61 -11t-55.5 12t-44 30t-26.5 42q-12 37 -11 74t12.5 68.5t32 55t46.5 33.5q15 6 33 8.5t37.5 3t38.5 -1
t36 -5.5q4 0 5.5 3t2 6t2 6t4.5 3q27 2 54 1t52 -6q5 -28 4 -64.5t-1 -66.5v-66q28 1 43.5 25t19.5 57.5t-2 69.5t-20 61q-26 46 -69 73t-91 33q-57 6 -105.5 -9t-87 -44.5t-66 -70.5t-42.5 -87t-17 -94t11 -91q14 -49 44 -89t70.5 -68.5t87.5 -44.5t95 -16q21 0 39 4
t34.5 10.5t32.5 13t33 11.5q7 -26 12.5 -52.5t12.5 -45.5q-6 -12 -26.5 -21.5t-45.5 -15.5t-48 -9.5t-34 -3.5q-72 -3 -138.5 15t-121.5 53.5t-95 86.5t-58 113q-33 111 -21 208t55.5 172t112 124t148.5 64q49 9 97.5 7.5t94 -15.5t86.5 -41t76 -68zM327 283
q-8 -5 -12.5 -18t-5 -27.5t4 -27.5t15.5 -17q26 -11 49.5 -1.5t36.5 23.5q-1 16 1 29t1 29q-8 4 -19.5 9t-24 7t-24.5 1t-22 -7z" />
    <glyph glyph-name="A" unicode="A" horiz-adv-x="495" 
d="M282 729l-3 -15t-3 -13h17q19 -85 38.5 -172.5t40 -174.5t42.5 -171.5t45 -163.5q-9 -2 -24 -6t-31 -7.5t-31.5 -7t-25.5 -4.5q-11 33 -21 66.5t-24 74.5q-32 9 -67.5 10.5t-79.5 7.5q-8 -19 -14 -41.5t-11 -46t-9 -46t-8 -41.5q-31 4 -60 9t-53 10q12 83 29.5 152
t35.5 138q31 119 59 235t60 228q27 -5 53 -10.5t45 -10.5zM179 277q23 -4 47 -5.5t47 -6.5q-13 51 -21.5 100t-23.5 98q-12 -49 -25 -92t-24 -94z" />
    <glyph glyph-name="B" unicode="B" horiz-adv-x="477" 
d="M317 328q17 -25 31 -56t21.5 -64t6.5 -66.5t-14 -62.5q-23 -51 -81.5 -71t-158.5 -20q-42 0 -66 -1t-50 1q0 86 2 169t0 171q-2 106 -5.5 207t-4.5 195q26 6 52.5 7.5t53.5 2.5q52 1 105.5 -12t96 -41.5t69.5 -72.5t27 -104q0 -72 -25 -117t-60 -65zM284 506
q0 31 -15.5 54.5t-40 38.5t-54.5 20.5t-58 -0.5q1 -54 3 -112t7 -110q32 0 61 5t50.5 17.5t34 33.5t12.5 53zM201 284q-20 -2 -39.5 -3.5t-35.5 -1.5q-2 -40 -1.5 -87.5t0.5 -89.5q19 1 38.5 1.5t36.5 3.5t29.5 10.5t18.5 22.5q8 19 6 40t-10 40.5t-19.5 36t-23.5 27.5z" />
    <glyph glyph-name="C" unicode="C" horiz-adv-x="461" 
d="M410 519q-19 -2 -50.5 -4t-62.5 -1q-1 20 -4 43t-10.5 42.5t-21.5 32.5t-38 13q-29 0 -48.5 -15t-31.5 -39t-17.5 -54t-7.5 -60t-2 -58v-47v-44.5t2.5 -58t7.5 -61.5t15.5 -56.5t26.5 -41t40 -15.5t37.5 16t21 37t10 43t4.5 34q7 0 23 -0.5t33.5 -2t33.5 -3.5t23 -3
q-3 -47 -12.5 -89.5t-30.5 -75.5t-55.5 -52.5t-86.5 -19.5t-88 19t-59 51t-35.5 72.5t-18 84t-6.5 85.5t-1 76q-1 66 3 135.5t25 127t66.5 94.5t127.5 37q57 0 93.5 -21.5t57 -56t28 -78t8.5 -86.5z" />
    <glyph glyph-name="D" unicode="D" horiz-adv-x="430" 
d="M11 743q97 10 154.5 -12.5t93.5 -71.5q20 -26 35 -58t27.5 -65.5t22.5 -66.5t21 -61q-2 -11 -2 -15t-1 -12q1 -9 1.5 -18.5t1.5 -18.5q-16 -71 -38 -134t-58.5 -111.5t-93 -79t-141.5 -37.5q-22 87 -28 182t-4.5 192.5t6 195.5t3.5 191zM125 143q27 10 47 33.5t35 54.5
t25 67t16 72q-15 56 -30 102.5t-44 94.5q-3 5 -9 12.5t-12.5 14.5t-14 12t-13.5 5q0 -64 -3.5 -122.5t-6 -115t-1 -113.5t10.5 -117z" />
    <glyph glyph-name="E" unicode="E" horiz-adv-x="404" 
d="M294 120q3 -26 4.5 -53.5t4.5 -59.5q-37 -4 -77.5 -7t-79.5 -5.5t-75.5 -4.5t-65.5 -4q-2 38 -4 64t-2 52h6.5t7.5 1q-3 63 -3.5 139t-0.5 157.5v165t-1 162.5q44 1 84 2.5t77.5 2.5t74 0.5t74.5 -3.5q0 -24 -1 -55.5t-2 -56.5q-26 0 -48 0.5t-43.5 0t-44 -1.5t-50.5 -2
q0 -39 -0.5 -68.5t-1 -54t-0.5 -46t1 -43.5q48 -1 102 1.5t116 0.5v-25t-0.5 -29.5t-1 -30.5t-0.5 -27q-61 2 -113 -1.5t-103 -4.5q-1 -21 -1 -45t0.5 -48t1.5 -46t2 -38q42 2 83.5 4.5t79.5 6.5z" />
    <glyph glyph-name="F" unicode="F" horiz-adv-x="401" 
d="M137 748q1 -4 1 -10.5v-9.5q16 1 35.5 1.5t40.5 0.5t41 -1t38 -1v-30t-0.5 -31.5t-1 -28.5t-0.5 -22q-35 0 -78 0.5t-78 -3.5q-1 -16 -1.5 -39t-1.5 -47t-2.5 -47t-2.5 -40q51 3 106 1t112 -4q-1 -26 -2.5 -60.5t-2.5 -54.5q-57 2 -111 3t-108 -3q-6 -80 -8.5 -163.5
t-0.5 -158.5q-12 -1 -27 -2t-30 -1.5t-28.5 -1.5t-23.5 -1q-3 92 0.5 185.5t9 188t10 189.5t4.5 190q30 1 54 1h56z" />
    <glyph glyph-name="G" unicode="G" horiz-adv-x="439" 
d="M221 743q52 0 86 -21.5t54 -56t28 -77t8 -85.5l-107 -10q-2 17 -5 40t-9.5 43.5t-19.5 35t-35 14.5q-28 0 -46.5 -14t-31 -37t-19 -52t-9 -58t-3 -56t-0.5 -46q0 -15 -0.5 -41t1 -55.5t6.5 -60t15 -55.5t26.5 -40.5t41.5 -15.5q19 0 31 11t19 27.5t9.5 36t2.5 35.5
q-18 3 -36.5 3.5t-38.5 0.5v104q18 2 41 1t48 -2.5t49 -3.5t44 -2q1 -19 2 -42.5t-1 -54.5q-2 -37 -9.5 -77.5t-25.5 -74.5t-50 -56t-82 -22q-52 0 -87.5 18.5t-58.5 49t-35 70.5t-17.5 82.5t-6.5 85t-1 78.5q0 39 2.5 83t11 86t23.5 80.5t39.5 67.5t60 46t85.5 17z" />
    <glyph glyph-name="H" unicode="H" horiz-adv-x="436" 
d="M149 729q-1 -37 -4 -76.5t-6 -79.5t-5.5 -80t-1.5 -77q26 -3 56.5 -5.5t57.5 -0.5q1 7 2 28t2 49.5t1.5 61.5t1.5 64t2 57.5t2 41.5q19 0 45.5 -0.5t58.5 -1.5q-2 -88 -2.5 -183.5t-0.5 -180.5v-78.5t1 -75.5t3.5 -85t6.5 -107q-22 -5 -51 -7t-60 -4q-5 43 -7 80.5t-3 74
t-1.5 74t-1.5 80.5q-25 -2 -55 -0.5t-60 4.5q-5 -46 -8.5 -85t-5 -75t-2 -70.5t0.5 -71.5q-16 -1 -29 -1.5t-25.5 -0.5t-26.5 0.5t-32 1.5q-1 36 -0.5 78.5t2.5 84.5t4.5 81t6.5 69q-3 0 -7 1.5t-8 1.5q2 42 4.5 73t3.5 38q4 0 6 -0.5t5 -0.5q0 72 7.5 151t12.5 157
q28 -2 51 -2.5t59 -2.5z" />
    <glyph glyph-name="I" unicode="I" horiz-adv-x="425" 
d="M353 722q0 -9 -1 -23.5t-2 -30.5t-2.5 -31t-2.5 -26q-32 2 -61 3t-60 3q-7 -56 -9 -119t-1 -128.5t3.5 -130.5t4.5 -124q20 -2 41.5 -1t46.5 -1q0 -23 -0.5 -55.5t-2.5 -57.5q-17 -1 -39.5 0t-40.5 0q1 -6 0.5 -11.5t0.5 -10.5q-26 -2 -58 -3t-59 1q0 7 -1 12t-1 12
q-23 1 -51.5 1.5t-51.5 2.5v56.5t1 56.5q26 -1 51.5 -1.5t49.5 -0.5q-2 59 -4.5 124t-3.5 131t1 130.5t8 122.5q-2 0 -19 0.5t-37 1.5t-36.5 1.5l-16.5 0.5q1 31 2.5 60.5t3.5 52.5q38 -1 85 -2.5t95 -4t91.5 -5.5t75.5 -6z" />
    <glyph glyph-name="J" unicode="J" horiz-adv-x="445" 
d="M361 740q9 -95 17.5 -182t15.5 -181q5 -73 2 -144.5t-23 -128.5t-63 -92t-117 -35q-50 0 -85 15.5t-57 42t-34 61t-17 72t-4 75.5t4 72q24 -2 56.5 -4t55.5 -5q-2 -26 -2.5 -62t6 -69t24 -56t53.5 -23q27 0 44 16t26.5 41.5t13.5 57t4.5 62t-1 56t-2.5 40.5
q-2 46 -5.5 90t-7.5 88.5t-8.5 90t-8.5 95.5q23 2 51.5 3.5t61.5 3.5z" />
    <glyph glyph-name="K" unicode="K" horiz-adv-x="442" 
d="M235 69q-23 54 -39 111.5t-34 116.5q-8 1 -19.5 0.5t-19.5 0.5q-1 -100 -3.5 -176.5t-6.5 -133.5q-3 -1 -19 -1.5t-35 -0.5t-36 0.5t-22 1.5q4 91 6 165.5t2.5 138t1 118.5t0.5 107.5t1 104.5t3 109q10 -1 20.5 -1h23t28.5 -0.5t38 -1.5q-2 -33 -2.5 -76t-0.5 -86.5
v-81.5t1 -61q8 -1 14.5 -1h15.5q21 49 40 87t37.5 72t37 67.5t38.5 72.5q9 -3 22.5 -9.5t28 -13.5t28.5 -14t23 -12q-40 -74 -78.5 -144t-72.5 -152q26 -86 44 -149t41 -118q-20 -7 -49 -19t-58 -21z" />
    <glyph glyph-name="L" unicode="L" horiz-adv-x="386" 
d="M118 733q5 -86 4 -166t-3.5 -156.5t-4.5 -149.5t2 -145q24 0 52 -1t57 -2.5t57.5 -3.5t52.5 -6q-6 -56 -15 -111q-48 6 -101.5 7t-101.5 1v-8q-8 -1 -21.5 -1.5t-29 -1t-30.5 -1t-27 -0.5q-9 94 -9.5 187.5t1.5 186.5t4 185t-2 182q21 2 49 2t66 2z" />
    <glyph glyph-name="M" unicode="M" horiz-adv-x="596" 
d="M184 729q10 -42 22 -88t23.5 -93t22.5 -94t21 -91q8 40 17 85.5t18 91.5t17.5 91.5t16.5 86.5q36 2 68 3t61 -1q10 -77 20.5 -163.5t20 -178t18 -185t16.5 -185.5q-26 -6 -62 -9t-66 -5q-6 81 -14 165.5t-13 165.5q-8 -37 -15 -77.5t-14.5 -82.5l-15 -84t-17.5 -81h-104
q-18 83 -33.5 160t-34.5 157q-10 -81 -18 -164t-15 -164q-16 0 -36 1t-38 1.5t-32 1.5t-18 2q8 115 19 219.5t22.5 197t22 172t17.5 145.5q27 2 53.5 1.5t49.5 -1.5z" />
    <glyph glyph-name="N" unicode="N" horiz-adv-x="539" 
d="M290 264q13 55 23 108.5t20 106.5t20.5 107t24.5 109q21 -5 52.5 -11t65.5 -14q-14 -55 -29 -135.5t-31.5 -172t-34 -186t-35.5 -176.5q-29 -3 -58.5 -4.5t-52.5 -2.5q-34 72 -60.5 152.5t-50.5 161.5q-5 -70 -11 -142.5t-17 -129.5q-29 2 -61 4.5t-55 4.5
q14 160 29.5 334.5t17.5 350.5q20 0 45 0.5t66 -0.5q34 -114 63 -233t69 -232z" />
    <glyph glyph-name="O" unicode="O" horiz-adv-x="538" 
d="M289 736q32 -9 59 -36.5t45 -75.5q17 12 23 17t16 12q10 -17 27 -45t33 -54q-14 -14 -31.5 -26.5t-40.5 -27.5q5 -51 7 -99.5t-3 -99.5q-3 -32 -8 -68.5t-14.5 -72.5t-24.5 -68.5t-37 -57.5t-52.5 -39.5t-71.5 -14.5q-46 0 -79.5 17.5t-57 47t-38.5 66.5t-23.5 76.5
t-12 77.5t-4.5 68q-2 83 12.5 160.5t55.5 144.5q18 28 41.5 51t51.5 36.5t60 17t67 -6.5zM216 100q29 0 47 26.5t28 62t14 70.5t6 52q3 35 3.5 68t-1.5 70q-24 -6 -52 -7.5t-54 4.5t-47.5 19.5t-32.5 36.5q-5 -24 -12 -67t-5 -99q0 -21 4.5 -60.5t16.5 -78.5t32.5 -68
t52.5 -29zM298 565q-8 28 -20 41t-27 17q-17 5 -37 1.5t-28 -19.5q6 -17 19 -27t29 -14t33 -3.5t31 4.5z" />
    <glyph glyph-name="P" unicode="P" horiz-adv-x="449" 
d="M129 745q0 -4 -0.5 -7.5t-0.5 -7.5q53 -3 100.5 -16.5t83.5 -42t57.5 -76t21.5 -119.5q0 -74 -25.5 -119t-66 -69.5t-89.5 -33t-95 -9.5q2 -56 6.5 -115.5t12.5 -123.5l-114 -14q-11 96 -15.5 185t-4.5 172q0 84 3 158.5t7 139.5q2 26 3 52.5t2 49.5zM274 476
q0 39 -10.5 65t-30.5 41t-48 22t-63 9q-3 -55 -5.5 -115t-2.5 -128q30 1 58.5 5.5t51 15.5t36.5 31.5t14 53.5z" />
    <glyph glyph-name="Q" unicode="Q" horiz-adv-x="522" 
d="M70 51q-19 28 -32.5 68.5t-21.5 86.5t-11.5 94.5t-3.5 93.5q0 33 2.5 72t10.5 78t22 75t37.5 64t57.5 44.5t81 16.5q59 0 96 -25t58 -66.5t30.5 -95t14.5 -109.5q3 -39 4 -77.5t0 -73.5t-4 -65.5t-6 -52.5q23 -14 40 -19.5t37 -9.5q-6 -35 -10.5 -53t-7.5 -28t-6 -16.5
t-7 -18.5q-25 3 -47.5 11t-44.5 19q-25 -38 -62 -61t-88 -23q-42 0 -78.5 17.5t-60.5 53.5zM212 627q-32 0 -51.5 -26.5t-30 -63.5t-14.5 -76.5t-5 -65.5q-1 -34 1.5 -72.5t7.5 -75.5q20 7 39.5 10t52.5 3q19 0 44 -4.5t43 -12.5q1 10 1.5 29.5t0.5 46t-1.5 57t-3.5 62.5
q-2 36 -7 70t-14 60.5t-24.5 42.5t-38.5 16zM205 100q20 0 34 8t22 19q-11 4 -21.5 7.5t-27.5 3.5q-19 0 -33.5 -2.5t-25.5 -6.5q11 -17 21 -23t31 -6z" />
    <glyph glyph-name="R" unicode="R" horiz-adv-x="434" 
d="M89 732q129 -5 197 -68.5t59 -191.5q-4 -55 -25 -91.5t-50 -65.5q64 -117 110 -229q-26 -12 -54 -25.5t-54 -21.5q-23 55 -48 111t-55 104q-14 -3 -26.5 -5.5t-27.5 -4.5q-2 -58 1 -119.5t3 -124.5q-18 -1 -32.5 -2t-27.5 -1.5t-25.5 -1t-27.5 -0.5q0 89 -2.5 178.5
t-2.5 180.5q0 44 -1 86.5t0 84.5q2 54 5.5 106t6.5 103h9t19.5 -0.5t24.5 -1t24 -0.5zM117 625q-2 -20 -4 -47t-2 -56q0 -44 1.5 -85t2.5 -68q50 6 83 34.5t40 76.5q4 28 -4 55.5t-24.5 48.5t-40.5 32.5t-52 8.5z" />
    <glyph glyph-name="S" unicode="S" horiz-adv-x="478" 
d="M309 482q-3 21 -8 46t-14 47t-25 36.5t-42 14.5q-21 0 -34 -8.5t-20 -22.5t-9.5 -31.5t-2.5 -35.5q0 -42 17 -69.5t43 -47.5t57.5 -38.5t60.5 -42.5q62 -52 74 -119t-25 -130q-28 -48 -74 -72.5t-108 -24.5q-56 0 -93.5 17t-60.5 47.5t-33.5 71.5t-11.5 89q10 1 24.5 3
t29 3t28.5 1.5t25 -1.5q1 -25 6.5 -46.5t16 -37t27.5 -24t43 -8.5q21 0 43.5 11.5t33.5 28.5q15 24 10 49.5t-29 44.5q-49 38 -91 63t-72.5 53.5t-47.5 69.5t-17 111q0 49 13.5 89.5t39 68.5t61 43.5t80.5 15.5q56 0 93 -23t60 -59t33 -81.5t12 -90.5q-29 -7 -60 -9.5
t-53 -1.5z" />
    <glyph glyph-name="T" unicode="T" horiz-adv-x="522" 
d="M455 730q1 -26 0.5 -53t-0.5 -52q-26 1 -75 1t-107 -1q0 -83 -2 -165.5t-4.5 -162t-4.5 -154.5t-2 -142q-20 -2 -49.5 -3t-53.5 -2q-2 70 -1 145.5t3 154.5t4 161.5t3 165.5l-164 -3q-1 20 -1.5 50.5t-0.5 56.5q23 1 68 2t99 2v18q29 0 58.5 1t46.5 -1v-16
q58 0 107.5 -0.5t75.5 -2.5z" />
    <glyph glyph-name="U" unicode="U" horiz-adv-x="465" 
d="M31 705q22 -1 50.5 -3.5t63.5 -6.5q-6 -62 -12 -144t-11 -164q-1 -17 -2 -45t-1 -60t2.5 -64t9 -58.5t18.5 -43t31 -16.5q38 0 59.5 26.5t32 63.5t13 76t2.5 63q0 52 -3.5 107.5t-7.5 108.5t-7.5 102t-1.5 89q16 -1 49.5 -2t61.5 -3q0 -42 4 -90.5t8 -99.5t8 -104t4 -105
q1 -59 -7.5 -121t-33 -114t-68.5 -85t-115 -33q-52 0 -85 22t-53 57.5t-28.5 81t-10.5 91.5t0 89.5t4 75.5q5 80 11.5 161.5t14.5 147.5z" />
    <glyph glyph-name="V" unicode="V" horiz-adv-x="445" 
d="M397 723q-12 -42 -22 -98t-21.5 -119.5t-24.5 -132t-30 -134.5t-39.5 -127.5t-52.5 -111.5q-26 -1 -53.5 -2t-50.5 0q-38 72 -58.5 165.5t-30.5 192.5t-11.5 195.5t-2.5 175.5q20 1 45.5 1.5t67.5 0.5q1 -64 2.5 -134t6 -140t12.5 -136t22 -121q24 59 39 120.5t27.5 129
t26 142t35.5 159.5q18 -3 31 -6t25 -6.5t25.5 -7t31.5 -6.5z" />
    <glyph glyph-name="W" unicode="W" horiz-adv-x="667" 
d="M611 706q-15 -86 -26.5 -176.5t-23 -180.5t-26 -177.5t-36.5 -165.5q-14 -2 -31 -2.5t-34 -1.5t-32.5 -1.5t-25.5 -0.5q-11 41 -21.5 91t-21 103t-20.5 106.5t-21 102.5q-26 -72 -49.5 -150.5t-55.5 -146.5q-3 -6 -3.5 -13t-1.5 -17q-10 -1 -26.5 -2t-34.5 -2t-35.5 -1.5
t-27.5 0.5q-15 68 -25 150t-16 168.5t-9.5 172.5t-7.5 162q22 2 52.5 2.5t67.5 2.5q4 -77 6.5 -130t4.5 -95t4.5 -79t7.5 -81q12 31 25.5 77t27 96.5t25.5 100.5t19 89q12 0 27.5 -0.5t31 -0.5h30.5t27 -1q11 -44 21.5 -93t20 -99l19 -100t18.5 -96q8 50 13.5 103
t11.5 106.5t14 105t20 97.5q16 -3 34 -6t34.5 -6t29.5 -6t19 -5z" />
    <glyph glyph-name="X" unicode="X" horiz-adv-x="515" 
d="M378 755q29 -10 57 -23t52 -23q-24 -58 -44 -105.5t-39.5 -92t-39.5 -90t-44 -97.5q9 -31 20.5 -64.5t23 -65.5t23 -62t21.5 -54q-11 -6 -26 -13t-30.5 -14.5t-30.5 -14t-26 -9.5q-10 24 -20.5 50l-21 52t-19.5 50.5t-16 44.5q-26 -51 -52.5 -102.5t-59.5 -117.5l-106 56
q23 45 43 84.5t39 76.5t37.5 74.5t38.5 78.5q-14 43 -30 87.5t-32 88t-31 84t-27 75.5q12 4 28 9t32.5 10.5t32 10t26.5 6.5q10 -28 22 -61.5t24.5 -69.5t25.5 -73.5t25 -71.5q15 34 29.5 66.5t29.5 67t31 71.5t34 81z" />
    <glyph glyph-name="Y" unicode="Y" horiz-adv-x="588" 
d="M272 0q-58 -1 -115 0q2 39 3.5 84t2 92.5t-0.5 95t-4 89.5q-46 92 -84 172t-74 143q23 14 49 25.5t54 23.5q36 -60 69.5 -129t65.5 -133q26 34 57.5 74.5t62 80t57.5 74t44 56.5q18 -11 43.5 -31t46.5 -37q-18 -24 -48.5 -64.5t-67.5 -89t-77 -103t-79 -106.5
q1 -78 -1 -158.5t-4 -158.5z" />
    <glyph glyph-name="Z" unicode="Z" horiz-adv-x="505" 
d="M456 720q-4 -27 -9.5 -58.5t-10.5 -54.5q-5 0 -12 0.5t-12 1.5q-28 -60 -50.5 -123.5t-45 -126.5t-47.5 -124t-57 -118q19 1 47 1.5t58 0t58.5 -3t50.5 -8.5q-2 -25 -7 -58t-9 -56q-24 4 -64.5 5.5t-88 1.5t-95.5 -1.5t-87 -3.5q-3 18 -6 49t-5 56q67 121 117.5 249.5
t96.5 270.5q-35 5 -67.5 10t-66 9.5t-69 9t-75.5 10.5q5 35 10.5 60.5t10.5 53.5q41 -5 79.5 -10t86.5 -11t112.5 -14t156.5 -18z" />
    <glyph glyph-name="bracketleft" unicode="[" horiz-adv-x="375" 
d="M143 792q20 1 41 3.5t42 4t40 1.5t36 -4q1 -22 0.5 -52.5t-4.5 -54.5q-14 1 -34 1t-41.5 -1.5t-43.5 -3.5t-41 -5q-4 -68 -5.5 -153t-2.5 -174t-2.5 -175.5t-4.5 -158.5q35 -2 74.5 -2t87.5 -3q1 -30 0.5 -59.5t-2.5 -46.5q-30 0 -65 -1t-71.5 -0.5t-72.5 2t-69 6.5
q2 63 4 136.5t3.5 152t3 159.5t3 159t3 151t3.5 135q16 1 36 1.5t38 -1t30 -5.5t14 -12z" />
    <glyph glyph-name="backslash" unicode="\" horiz-adv-x="519" 
d="M97 782q97 -193 182.5 -393.5t171.5 -404.5q-36 -15 -59 -22t-49 -13q-75 192 -156 375.5t-165 367.5q-5 10 -12 23.5t-10 24.5q20 10 45.5 22.5t51.5 19.5z" />
    <glyph glyph-name="bracketright" unicode="]" horiz-adv-x="379" 
d="M159 797q1 9 13 13t29 5t36.5 0.5t36.5 -0.5q5 -101 8 -218t5.5 -236.5t4.5 -236t4 -215.5q-72 -5 -142 -2t-134 8q-4 23 -6.5 52t-0.5 57q57 -1 95 -3t71 -2q-2 67 -3 156t-2 181.5t-3 180t-7 152.5q-37 -2 -77 -3.5t-77 -5.5q-5 26 -6.5 51t-1.5 52q16 5 35.5 7t40 2.5
t41.5 1.5t40 3z" />
    <glyph glyph-name="asciicircum" unicode="^" horiz-adv-x="469" 
d="M247 854q19 -33 32.5 -61t25.5 -56.5t25.5 -59.5t32.5 -71q4 -8 12.5 -24.5t19.5 -41.5q-26 -8 -52.5 -15.5t-52.5 -14.5q-15 25 -26 49t-20.5 46.5t-19 44t-22.5 42.5q-23 -48 -46 -92.5t-44 -95.5q-31 5 -60.5 11.5t-50.5 16.5q21 46 38 80t34 72q18 40 35.5 79
t31.5 83q2 5 4 8.5t10 3.5q19 0 43 -0.5t50 -3.5z" />
    <glyph glyph-name="underscore" unicode="_" horiz-adv-x="833" 
d="M3 -50q2 26 0.5 54t3.5 51q120 0 238.5 -2t237.5 -1q68 1 135 3t134 -3q2 -8 3 -20.5t1 -26.5v-28.5v-26.5q-67 2 -133.5 -0.5t-134.5 -4.5q-121 -2 -241.5 1t-243.5 4z" />
    <glyph glyph-name="grave" unicode="`" horiz-adv-x="320" 
d="M236 664q-20 -14 -41.5 -30t-53.5 -27q-36 51 -72.5 100.5t-68.5 105.5q20 14 44 28.5t47 24.5q35 -50 72 -101.5t73 -100.5z" />
    <glyph glyph-name="a" unicode="a" 
d="M249 641q10 1 24 2t29.5 2t30 1t25.5 -1q8 -30 12.5 -77.5t6.5 -105t2 -121t-1 -127t-3.5 -123t-4.5 -107.5q-20 -1 -51.5 -2t-53.5 2q-1 5 -0.5 9.5t-0.5 12.5q-23 -13 -52.5 -17t-57.5 1q-44 8 -74 36t-47.5 67.5t-25 88t-6.5 98.5q0 36 4 81t14.5 89.5t29 83
t47.5 61.5t66.5 26.5t89.5 -2.5q-1 6 -1.5 10zM115 283q0 -32 2.5 -63t9.5 -56t19.5 -42t32.5 -21q11 -3 24 -2t25 5.5t21.5 11.5t14.5 17q3 39 4.5 87.5t2 98.5t-1.5 98.5t-7 88.5q-17 7 -44.5 8t-43.5 -9q-20 -14 -31.5 -42.5t-17.5 -62t-8 -65.5t-2 -52z" />
    <glyph glyph-name="b" unicode="b" horiz-adv-x="391" 
d="M108 797q4 -35 5.5 -73t3.5 -90q69 -10 113 -34.5t69 -65t34 -97t9 -131.5q0 -70 -7.5 -126t-31.5 -95.5t-69.5 -61.5t-121.5 -24q0 -7 -0.5 -9t-0.5 -8h-26h-30t-29.5 0.5t-24.5 2.5q7 195 5.5 399.5t-9.5 408.5q8 0 22.5 1t30.5 1.5t31.5 1t26.5 0.5zM119 514
q3 -103 1.5 -199.5t-3.5 -197.5q41 -3 64.5 11t35 39.5t14.5 61t3 76.5q0 37 -3.5 72.5t-15.5 64.5t-34.5 48t-61.5 24z" />
    <glyph glyph-name="c" unicode="c" horiz-adv-x="422" 
d="M277 407q-1 20 -4 42t-11 40t-22 30t-38 11q-23 -1 -39 -13.5t-26.5 -31.5t-16 -43.5t-8 -48.5t-2.5 -46v-37q0 -23 3 -59.5t12 -71t27 -60t49 -25.5q22 0 33 17t15.5 40t4.5 46.5t-1 36.5q26 2 55.5 2.5t51.5 -1.5q3 -42 0 -87t-19 -81.5t-49 -60.5t-88 -24
q-45 0 -77.5 15t-55 40t-36 58t-21 69.5t-10.5 73.5t-3 71q-1 55 4.5 113.5t25.5 107.5t59 81t106 34q88 2 139 -56.5t46 -179.5q-9 -1 -22.5 -1.5t-28 -0.5h-29h-24.5z" />
    <glyph glyph-name="d" unicode="d" horiz-adv-x="450" 
d="M359 797q6 -101 3.5 -204t-7.5 -205t-9 -202t0 -197q-25 -2 -55 -3.5t-53 -0.5q-1 5 -1.5 10.5t-0.5 10.5q-73 -3 -119.5 21.5t-72.5 68.5t-35.5 103.5t-7.5 127.5q1 47 8.5 93t23.5 85.5t40.5 70.5t59.5 48q23 11 52.5 13.5t64.5 -5.5q2 42 1 84t-3 77q21 3 53 4t58 0z
M233 122q-1 39 0.5 87.5t4 99.5t5.5 100t5 90q-19 19 -34.5 22t-29.5 -5q-19 -11 -32 -30.5t-21 -45t-11.5 -54.5t-3.5 -59q0 -39 3.5 -77t16 -67t35.5 -46.5t62 -14.5z" />
    <glyph glyph-name="e" unicode="e" horiz-adv-x="476" 
d="M414 353q0 -8 0.5 -21t1 -29t0.5 -33.5v-33.5q-41 -2 -77.5 -2.5t-72.5 -0.5h-73h-77q1 -24 2.5 -47t8 -41.5t20.5 -30t40 -12.5q18 0 35.5 4.5t33.5 12t30 16t25 15.5q13 -23 28 -48.5t29 -46.5q-37 -35 -84 -54t-101 -17q-71 1 -108.5 30.5t-54 74.5t-18 100t-1.5 109
q0 56 6.5 116t28 110t61.5 82t107 32q66 0 104.5 -26.5t58 -67.5t24.5 -91.5t5 -99.5h18zM119 353q23 -1 41.5 -1h37t38 -0.5t45.5 -0.5q0 26 -1.5 57t-9 57.5t-23 44.5t-42.5 18q-30 0 -47 -19t-25.5 -46t-11 -57t-2.5 -53z" />
    <glyph glyph-name="f" unicode="f" horiz-adv-x="449" 
d="M326 758q0 -21 -0.5 -52t-3.5 -53h-31.5t-39.5 -2t-36.5 -9t-21.5 -20q-6 -15 -7.5 -36t-1 -44.5t2.5 -48t3 -46.5q60 2 110.5 5t98.5 5q2 -26 3.5 -48.5t3.5 -57.5q-19 -3 -44.5 -5t-53.5 -4t-57.5 -4t-56.5 -3q-1 -81 -2 -168.5t-3 -166.5q-11 -1 -25.5 -1.5t-30 -0.5
h-30h-23.5q0 37 0.5 78t1 83.5t0.5 84.5v81q-19 0 -32.5 -2.5t-31.5 -5.5q-5 22 -10 48t-8 55q14 8 36.5 10.5t42.5 5.5q0 23 -1.5 52.5t-2.5 61t0.5 62t7.5 54.5q10 38 38 58t63 28t73 8t69 -2z" />
    <glyph glyph-name="g" unicode="g" horiz-adv-x="490" 
d="M427 628q-2 -26 -3 -54.5t-4 -47.5q-13 -1 -34 1t-40 0q20 -28 31 -67t10 -81q-2 -114 -59.5 -172.5t-156.5 -52.5q-8 -8 -12 -22t-6 -24q39 0 81 -2.5t77.5 -15.5t58.5 -40t23 -75q0 -53 -23.5 -84t-60 -46.5t-81.5 -19t-87 -0.5q-1 20 -1.5 50.5t1.5 60.5
q14 1 35.5 1.5t41.5 3.5t34.5 9.5t14.5 18.5q0 9 -16.5 14.5t-41.5 8t-56 3.5t-60 0.5t-53 -0.5t-35 2q14 81 29.5 127.5t26.5 72.5q-22 17 -35.5 39.5t-20.5 48t-8.5 52t1.5 51.5q6 52 23.5 96.5t44 77t60 52.5t71.5 24q16 0 43.5 -0.5t60 -1.5t66 -3t60.5 -5zM154 270
q24 -10 46.5 -4t40.5 23t28.5 41.5t9.5 50.5q-1 22 -6.5 45t-15.5 42.5t-24.5 33t-34.5 18.5q-17 -3 -31.5 -16t-26 -32t-19 -42t-10.5 -46q-2 -15 -1 -32.5t6 -33.5t14 -29t24 -19z" />
    <glyph glyph-name="h" unicode="h" horiz-adv-x="418" 
d="M119 799v-85t-1 -90q23 11 48.5 14t49.5 -2.5t45 -18t36 -32.5q19 -24 29 -53.5t14 -60.5t4 -62v-58q-1 -38 -2 -79l-2 -82t-0.5 -80.5t2.5 -75.5q-9 -2 -23.5 -3t-30 -1.5t-31 -0.5t-27.5 1q-2 36 -2 77t0.5 83t2 82.5t1.5 76.5v38t-2 40.5t-6.5 39.5t-14.5 35
q-8 13 -20 17.5t-25.5 3t-26 -8.5t-21.5 -16q-1 -37 -1.5 -81.5t-0.5 -91.5v-95t-0.5 -91t-0.5 -80t-1 -63q-38 -1 -60.5 -1.5t-48.5 0.5q-1 62 -2 138t-1 155.5t0.5 158.5t1.5 147.5t1.5 122.5t0.5 84q24 1 56 0.5t59 -2.5z" />
    <glyph glyph-name="i" unicode="i" horiz-adv-x="220" 
d="M59 849q25 6 41.5 0t26 -19.5t12 -31.5t-1 -36t-13 -32.5t-23.5 -20.5q-28 -12 -52 -1t-37.5 32.5t-13.5 47.5t21 44q8 7 18 10.5t22 6.5zM138 625q5 -156 3.5 -317t-9.5 -309q-12 -1 -28.5 -1.5t-33 0t-31 2t-24.5 3.5q6 167 7.5 318.5t1.5 303.5q11 0 26 0.5t30.5 0.5
h30.5t27 -1z" />
    <glyph glyph-name="j" unicode="j" horiz-adv-x="292" 
d="M125 845q34 13 60.5 -1t37.5 -39.5t4.5 -54.5t-36.5 -46q-25 -14 -46.5 -11.5t-37 15t-23.5 32t-7 40t12.5 38.5t35.5 27zM212 627q1 -11 -1 -48.5t2 -88.5q4 -63 11 -143t6 -161t-14 -156.5t-48 -129.5q-26 -42 -66.5 -61t-80.5 -23q-9 21 -20 47t-19 55q29 9 52.5 19
t37.5 36q18 31 28 70.5t14 83.5t3.5 91.5t-3.5 93.5t-6.5 88.5t-5.5 78.5q-2 42 -3 79t1 69q22 1 52.5 0.5t59.5 -0.5z" />
    <glyph glyph-name="k" unicode="k" horiz-adv-x="452" 
d="M120 792q-1 -54 -2.5 -112t-2 -116.5t-0.5 -117t3 -112.5q11 -1 22.5 -1.5t25.5 -0.5q9 24 23.5 57.5t33 69t40 70.5t44.5 63q19 -12 42 -28t49 -36q-15 -22 -34.5 -53t-38.5 -68t-36 -77t-29 -80q11 -45 23.5 -95.5t22.5 -96.5q-28 -8 -53 -14.5t-54 -11.5
q-11 48 -21.5 95t-23.5 91q-8 1 -17.5 1.5t-18.5 0.5q-1 -51 -3 -108.5t-7 -114.5h-54t-55 5q4 70 6 131t2 120t-0.5 118t-1.5 123.5t-0.5 138.5t2.5 162q36 0 65 -1.5t48 -1.5z" />
    <glyph glyph-name="l" unicode="l" horiz-adv-x="199" 
d="M107 793q0 -201 5 -396t16 -397q-23 -2 -53 -3.5t-58 -2.5q-10 204 -13.5 401t-3.5 400h22t34 -0.5t33 -1t18 -0.5z" />
    <glyph glyph-name="m" unicode="m" horiz-adv-x="653" 
d="M120 642q0 -9 -0.5 -18.5t1.5 -20.5q49 36 96 27t79 -54q24 19 48.5 34.5t50 23.5t52 6.5t54.5 -15.5q42 -21 64 -65t30.5 -101t6.5 -121.5t-7.5 -125.5t-12.5 -113.5t-9 -84.5q-1 -2 -16 -3t-34 -1t-36 1t-22 3q2 34 7 80.5t9.5 97t7.5 101.5t0.5 94t-11 74.5
t-25.5 43.5q-14 9 -29.5 5.5t-31 -14t-29 -24.5t-21.5 -26q0 -39 -3 -94t-6.5 -115t-5 -121.5t1.5 -113.5q-6 0 -20.5 -0.5t-31.5 -1t-33 -1t-25 -0.5q-5 53 -3.5 113t4.5 118.5t5.5 113t-1.5 97.5q-3 29 -17 42.5t-31.5 12.5t-34.5 -15t-25 -39q-2 -45 -4.5 -85t-3 -85
t0.5 -99.5t5 -128.5q-28 -3 -54.5 -5t-49.5 -2q-6 74 -8 152t-1 155.5t3.5 152.5t4.5 144q26 1 55.5 1.5t55.5 -0.5z" />
    <glyph glyph-name="n" unicode="n" 
d="M165 649q-1 -9 -1 -14.5t-1 -8.5q17 5 34 6.5t34 1.5q57 0 90.5 -22.5t51 -58.5t22.5 -80t5 -87q0 -53 -1 -96.5t-3 -82.5t-5.5 -77.5t-8.5 -81.5q-18 -1 -49.5 0t-56.5 6q4 42 6.5 79t4.5 75t3 79t1 91q0 20 -2 44t-9 45t-21.5 35t-39.5 14t-39 -4.5t-28 -9.5
q-10 -46 -18.5 -110.5t-13.5 -133.5t-5 -135.5t6 -117.5q-3 -1 -19 -3t-35.5 -3.5t-36.5 -2.5t-21 -1q-10 75 -6.5 161.5t13 173.5t21 169.5t19.5 151.5q21 1 48 1t61 -3z" />
    <glyph glyph-name="o" unicode="o" horiz-adv-x="499" 
d="M359 503q10 3 22 11.5t27 18.5q25 -44 54 -96q-26 -24 -48.5 -39t-38.5 -21q3 -73 0 -130t-14 -110q-7 -31 -19 -58.5t-31.5 -48.5t-47.5 -33t-66 -12q-60 0 -98 24.5t-59.5 66.5t-29.5 97t-9 115q-1 41 5.5 86t18.5 89q11 39 27.5 72.5t40.5 58t55 36.5t72 8
q55 -6 90 -41t49 -94zM154 490q7 -6 19 -10t25.5 -6t27.5 -3t26 -1q-4 28 -18 42t-30 17q-13 2 -28 -10t-22 -29zM120 373q-4 -20 -6.5 -43t-2.5 -46q0 -35 4.5 -68.5t14.5 -59.5t26.5 -41.5t39.5 -15.5t36.5 21.5t19.5 48.5q11 45 12 92t-2 89q-34 -2 -73.5 4.5t-68.5 18.5
z" />
    <glyph glyph-name="p" unicode="p" horiz-adv-x="461" 
d="M179 645q-1 -6 -1.5 -9.5l-1.5 -10.5q49 -2 84 -15.5t60 -37.5t41 -58t27 -76q12 -49 14.5 -102t-7.5 -102.5t-32.5 -93.5t-60.5 -75q-38 -32 -84.5 -47.5t-96.5 -17.5q2 -29 7.5 -57.5t10.5 -51.5q-11 -5 -25.5 -9t-30 -6.5t-30 -5t-26.5 -4.5q-15 59 -21 128.5
t-5.5 143.5t7 149t16 143.5t21 128t21.5 102.5q14 -1 31.5 -3t33.5 -5t29 -5t19 -3zM117 117q32 0 59.5 10.5t49.5 29.5q24 21 38 51.5t19.5 64t3.5 68.5t-10 67q-6 27 -15 45t-22.5 29.5t-33 17.5t-48.5 8q-7 -29 -14 -73t-13 -96.5t-10 -109.5t-4 -112z" />
    <glyph glyph-name="q" unicode="q" horiz-adv-x="452" 
d="M1 344q-1 75 17 131t51 92t80.5 51.5t106.5 9.5v14l117 -4q-2 -113 -1.5 -220t2 -203.5t3 -180.5t0.5 -152q-9 -1 -23.5 -1.5t-30 -0.5t-30.5 0.5t-25 1.5q0 32 0.5 58t-0.5 60q-78 -2 -129 29t-81.5 81.5t-43 112.5t-13.5 121zM115 341q1 -36 8.5 -75.5t24.5 -72
t45 -53.5t70 -20q-1 43 -2.5 93.5t-2.5 102t-1.5 102t-0.5 92.5q-42 9 -69.5 -2.5t-43.5 -36.5t-22.5 -59.5t-5.5 -70.5z" />
    <glyph glyph-name="r" unicode="r" horiz-adv-x="382" 
d="M124 617q42 10 94.5 16.5t113.5 0.5q2 -26 0.5 -54.5t-2.5 -54.5q-60 4 -113 -6t-98 -26q-3 -61 -4.5 -119t1.5 -116.5t10.5 -118.5t21.5 -126q-29 -8 -57 -13l-56 -10q-17 79 -24.5 162t-9.5 166t1 164.5t8 158.5q32 0 58 -0.5t56 -2.5v-21z" />
    <glyph glyph-name="s" unicode="s" horiz-adv-x="455" 
d="M403 377q-25 -4 -51 -6t-55 -4q-5 25 -9.5 52.5t-14.5 50.5t-27.5 37.5t-47.5 14.5q-37 0 -59 -22.5t-22 -53.5q0 -20 7 -36t19 -28.5t27.5 -22.5t32.5 -19q34 -18 65 -33.5t54 -36t37 -48.5t14 -70q0 -87 -49.5 -127t-137.5 -40q-51 0 -86.5 16t-57.5 46t-31.5 71.5
t-7.5 92.5q24 2 52.5 1t57.5 -3q0 -18 2 -36.5t9 -34t21.5 -26.5t40.5 -13q12 -1 25 1.5t23.5 8.5t17.5 15t7 23q0 12 -9 23.5t-24 22.5t-34 21.5t-40 21.5q-34 18 -62 36.5t-48 42t-31 55.5t-11 79q0 41 13 76t38.5 60.5t63 39.5t85.5 14q56 0 94 -22.5t62 -59t34.5 -84
t12.5 -96.5z" />
    <glyph glyph-name="t" unicode="t" horiz-adv-x="442" 
d="M232 753q3 -23 5 -59t2 -65h41t42 0.5t37.5 0.5h28.5q0 -5 0.5 -16.5t0.5 -27.5t0.5 -34.5t0.5 -35.5q-9 0 -26 -0.5t-38 -1t-43 -1t-41 -1.5q1 -62 -0.5 -128.5t-2.5 -133t1.5 -130t13.5 -118.5q-35 -5 -62.5 -8.5t-50.5 -7.5q-14 57 -18 123t-3.5 134.5t3.5 136
t2 129.5q-25 0 -54 -1.5t-65 -3.5q-2 27 -3 55t-3 61q38 4 67.5 4.5t52.5 2.5q0 12 -0.5 28t-1 33.5t-2 34t-2.5 28.5q25 2 57.5 3t60.5 -1z" />
    <glyph glyph-name="u" unicode="u" horiz-adv-x="452" 
d="M365 636q8 -62 13.5 -123.5t6.5 -122t-5 -119t-21 -114.5q-9 -35 -24 -65.5t-37.5 -54t-53.5 -37t-72 -13.5t-70 14t-47.5 38t-29.5 55.5t-16 66.5q-8 51 -10 105.5t0.5 109t8 108.5t14.5 103q23 -2 51 -7t52 -10q-11 -97 -17.5 -191.5t7.5 -187.5q7 -40 20 -64.5
t37 -24.5q35 0 54 28t29 66q11 46 15.5 102t3.5 114t-5 113.5t-10 99.5q25 3 54.5 6.5t51.5 4.5z" />
    <glyph glyph-name="v" unicode="v" horiz-adv-x="484" 
d="M428 612q-14 -66 -32.5 -141t-42 -151.5t-50.5 -149t-58 -133.5l5 -10t3 -7q-21 -15 -45.5 -27t-51.5 -26q-24 42 -49 92t-46.5 102t-36.5 101t-19 90q-3 27 -1.5 55t3 55t0.5 53.5t-7 52.5q26 2 53.5 6.5t52.5 6.5q9 -27 11 -54.5t1 -54t-2.5 -52t1.5 -48.5
q7 -59 24.5 -105t37.5 -93q21 49 40.5 106.5t36.5 119t31.5 123.5t26.5 120q10 0 26.5 -4t33.5 -9t32 -10t22 -8z" />
    <glyph glyph-name="w" unicode="w" horiz-adv-x="685" 
d="M368 625q9 -49 17.5 -105t16 -114t15 -115t15.5 -108q15 44 29.5 104.5t26.5 123t20.5 118.5t10.5 91q22 -2 52 -3.5t59 -3.5q-5 -86 -19.5 -176.5t-33 -173t-39 -151.5t-38.5 -112q-29 2 -62.5 4.5t-53.5 7.5q3 10 6 23q-8 1 -22.5 1h-23.5q-4 13 -9.5 34.5t-11.5 46.5
t-12 51.5t-10 50.5q-11 -28 -21 -52t-20.5 -47t-21.5 -46.5t-23 -49.5q-13 -2 -31 -3.5t-36.5 -2t-36.5 -0.5h-31q-23 57 -37.5 127.5t-23 147.5t-13 156t-6.5 153h27h31t30 -0.5t24 -0.5q1 -35 4 -87.5t8 -110.5t12.5 -114.5t18.5 -99.5q42 103 72.5 212t41.5 224h99v0z
" />
    <glyph glyph-name="x" unicode="x" horiz-adv-x="496" 
d="M434 578q-15 -33 -34.5 -68.5t-41 -71.5t-43.5 -71.5t-42 -67.5q33 -63 74 -126t83 -118q-22 -20 -48 -39.5t-45 -31.5q-38 48 -71 98t-58 98q-20 -39 -47 -80t-55 -103q-32 12 -58 24.5t-48 23.5q13 31 31 63.5t37 65.5t37 66t30 66q-13 29 -30.5 63t-35.5 70.5
t-35.5 73t-31.5 70.5q9 5 22 10.5t27.5 11.5t29 11t26.5 9q24 -59 53 -114.5t48 -95.5q33 52 63 104.5t60 114.5q9 -5 22.5 -11.5t28 -14t28.5 -15.5t24 -15z" />
    <glyph glyph-name="y" unicode="y" horiz-adv-x="500" 
d="M479 604q-17 -48 -38 -112t-46.5 -132.5t-54.5 -136t-61 -124.5q-40 -69 -89 -145t-97 -140q-23 14 -50 32t-44 34q28 41 60.5 88.5t56.5 92.5q-24 87 -40.5 158t-29.5 129.5t-24 107t-22 90.5q18 6 44 13t65 16q13 -39 24 -87.5t22 -99t22 -99.5t23 -89q27 47 50 101.5
t44 112t40 115.5t39 112q23 -8 53 -18.5t53 -18.5z" />
    <glyph glyph-name="z" unicode="z" horiz-adv-x="500" 
d="M436 595q2 -6 2.5 -10t1.5 -10q-24 -53 -45.5 -114t-43.5 -123.5t-46.5 -122.5t-52.5 -111q33 1 68.5 2.5t67.5 -1.5q0 -26 1 -52.5t0 -52.5q-37 0 -78 -1.5t-80.5 -3t-74 -3t-58.5 -2.5q-3 25 -5 52.5t-4 52.5q6 2 12.5 2t13.5 2q26 40 49.5 89.5t44.5 103t40 107.5
t36 102q-32 3 -60.5 7.5t-60.5 9.5t-71.5 11.5t-92.5 13.5q4 34 7.5 61t6.5 49q100 -11 208.5 -29t213.5 -29z" />
    <glyph glyph-name="braceleft" unicode="{" horiz-adv-x="369" 
d="M156 346q14 -20 20 -47.5t8 -58t3 -62.5t5 -60.5t13 -52.5t28 -39q11 -8 22.5 -13t28.5 -13q-14 -23 -27 -43t-27 -36q-15 2 -33 6.5t-33 12.5q-36 18 -51 56t-21 85.5t-9 97t-15 90.5q-5 15 -13.5 26.5t-17.5 22t-18.5 21t-15.5 24.5q0 12 6.5 17.5t15 9.5t18 7.5
t15.5 11.5q20 23 29.5 56.5t14.5 71t9 77t12.5 74t24.5 61.5t45 41q15 -11 30.5 -27.5t37.5 -36.5q-11 -10 -18.5 -19t-12.5 -22q-15 -37 -21 -83t-11 -92.5t-13.5 -89.5t-28.5 -74z" />
    <glyph glyph-name="bar" unicode="|" horiz-adv-x="232" 
d="M105 -106q-5 -2 -17.5 -3.5t-28 -2l-31 -1t-26.5 -0.5q-1 60 -1.5 111t0 97.5t1.5 91t2.5 93t3 103t3.5 120.5q1 25 1 68.5v91v92v72.5q29 0 58.5 1t46.5 -1v-73.5v-92v-91v-69.5q-1 -66 -2.5 -120.5t-3 -103t-3 -93t-2 -90t-1 -94.5t-0.5 -106z" />
    <glyph glyph-name="braceright" unicode="}" horiz-adv-x="369" 
d="M135 338q-24 22 -37 56t-19 73.5t-7.5 83.5t-2.5 87q-1 32 -18.5 55t-33.5 39q11 11 32.5 30.5t41.5 35.5q34 -19 57 -60t24 -90q1 -41 2.5 -80.5t8.5 -74.5t21.5 -63t40.5 -44l26 -16t14 -29q-13 -17 -27.5 -32t-28 -31t-24.5 -34t-16 -41q-4 -18 -5 -38t-1.5 -40
t-2 -40.5t-5.5 -38.5q-10 -41 -41 -74t-78 -47q-10 14 -25.5 34t-30.5 43q28 10 43 27t22 39t8.5 48t2 52t3 52t12.5 48q8 20 21 35.5t23 34.5z" />
    <glyph glyph-name="asciitilde" unicode="~" horiz-adv-x="531" 
d="M430 431q17 -14 35 -33t35 -38q-8 -10 -21 -23t-28.5 -25.5t-30.5 -23t-27 -15.5q-41 -17 -75.5 -9t-64.5 23t-56 27.5t-48 5.5q-26 -8 -45 -25.5t-36 -31.5q-20 15 -39 37t-36 39q52 65 120 86q41 12 73 3t59.5 -23.5t52.5 -25.5t52 -2q28 9 46 26t34 28z" />
    <glyph glyph-name="exclamdown" unicode="&#xa1;" horiz-adv-x="223" 
d="M78 575q31 6 48.5 -12.5t22 -45.5t-3.5 -53.5t-27 -36.5q-20 -10 -40.5 -9t-37.5 10t-27.5 24.5t-10.5 33.5q0 35 20.5 58.5t55.5 30.5zM136 348q4 -64 6 -134t3 -141.5t3 -141.5t8 -134q-6 -3 -22 -5t-34.5 -2.5t-35 0t-22.5 2.5q-7 64 -9.5 135t-3.5 143.5t-2 143
t-4 134.5q31 3 59 2.5t54 -2.5z" />
    <glyph glyph-name="cent" unicode="&#xa2;" horiz-adv-x="520" 
d="M307 853q-1 -15 -2.5 -27t-2.5 -23t-1.5 -23t-0.5 -28q39 -12 67.5 -38t45.5 -62.5t23 -82t1 -97.5q-23 -5 -53.5 -4.5t-56.5 2.5q0 42 -4.5 81t-30.5 65q-20 20 -44.5 24t-47 -3t-40 -24t-23.5 -39q-16 -54 -17.5 -111t0.5 -111q1 -36 5 -71.5t8.5 -65.5t9 -51.5
t7.5 -29.5q4 -13 12.5 -23.5t20 -18.5t24 -12.5t24.5 -4.5q45 -2 70 25q12 12 16.5 26.5t4.5 30t-2.5 30.5t-5.5 29q25 4 51 5.5t53 5.5q10 -29 12.5 -62t-2.5 -64t-17.5 -56.5t-32.5 -37.5q-22 -14 -42.5 -24t-47.5 -16v-33v-26.5v-24.5t-1 -25q-29 -5 -59.5 -4.5
t-55.5 2.5q-1 37 -0.5 60t0.5 51q-18 10 -35.5 19.5t-33 20t-28.5 24t-22 32.5q-6 13 -14 42t-15.5 67t-13.5 83t-8 91q-2 36 -1 71.5t4 66.5t7.5 56.5t8.5 42.5q6 25 17 53.5t29.5 53.5t46 44t66.5 25q2 22 5 49.5t9 55.5q18 2 48.5 -2t64.5 -9z" />
    <glyph glyph-name="sterling" unicode="&#xa3;" horiz-adv-x="514" 
d="M375 445q-10 -2 -24.5 -2.5t-28.5 0t-26 1t-18 1.5q0 21 1.5 48t0 53.5t-7.5 50.5t-22 40q-21 21 -36.5 18.5t-28.5 -13.5q-18 -15 -26.5 -42.5t-12 -64t-4 -80t-2.5 -89.5q31 -1 64.5 -0.5t75.5 -1.5q-1 -35 -3 -63t-4 -45q-38 -3 -71 -2.5t-62 -1.5q-1 -20 -1.5 -36.5
t-0.5 -32t-0.5 -30.5t-0.5 -33q33 3 60.5 0.5t54 -8t53.5 -12t57 -10.5q25 -3 45 -3t43 2q-1 -26 -5.5 -52t-9.5 -58q-16 -4 -33 -5t-42 1q-27 1 -50 6.5t-48 11.5t-54 9.5t-68 2.5q-24 -1 -51.5 -6t-51.5 -15q-10 26 -18.5 45.5t-16.5 48.5q4 4 12 8.5t11 5.5q1 42 2 81
t1 81q-7 0 -7.5 0.5t-5.5 1.5q-2 33 -1 59.5t1 49.5q5 2 6 1.5t12 -0.5q3 40 2.5 88t4.5 96t20 92t49 78q22 22 50.5 32t58.5 8.5t58.5 -15t49.5 -38.5q22 -26 34 -58.5t16.5 -67.5t3 -70t-4.5 -66z" />
    <glyph glyph-name="currency" unicode="&#xa4;" horiz-adv-x="577" 
d="M116 625q14 -20 29.5 -42t35.5 -38q16 12 36.5 16.5t41.5 3t39.5 -8.5t30.5 -17q15 9 29 21t26.5 24t24 23t21.5 18q14 -17 32.5 -35t36.5 -44q-13 -23 -35.5 -45t-41.5 -39q16 -27 25 -60.5t9.5 -68t-7.5 -66t-24 -53.5q15 -26 34.5 -48t37.5 -45q-4 -7 -12.5 -17
t-19.5 -20.5t-24.5 -20.5t-27.5 -16q-24 16 -42.5 42.5t-36.5 46.5q-45 -15 -84.5 -7t-73.5 20q-24 -21 -44.5 -44.5t-46.5 -41.5q-48 27 -84 69q17 26 40.5 47.5t43.5 45.5q-17 27 -24.5 62t-6 69t11 62.5t26.5 43.5q-14 15 -36 44t-33 64q19 15 41.5 29t51.5 26zM178 297
q13 -32 45 -48.5t74 -10.5q23 3 35.5 23.5t15.5 47.5t-3 57t-20.5 52.5t-37 34t-52.5 1.5q-21 -7 -36.5 -22t-23.5 -36t-8 -46.5t11 -52.5z" />
    <glyph glyph-name="yen" unicode="&#xa5;" horiz-adv-x="560" 
d="M386 742q19 -8 41.5 -16t50.5 -30q-39 -76 -77.5 -162.5t-88.5 -173.5q33 0 60.5 -2t56.5 -4q0 -12 -1 -27.5t-3 -31t-4 -30t-3 -24.5q-11 -1 -28.5 0t-37.5 2t-39.5 1t-34.5 -3q-2 -20 -1 -31t1 -18q39 0 77 -0.5t71 -0.5q-1 -25 -3.5 -51.5t-9.5 -55.5q-12 -2 -30 -2.5
t-37.5 -1t-38 -0.5t-33.5 -1q-1 -35 -2.5 -63.5t-4.5 -65.5q-6 0 -21.5 1t-32.5 2.5t-32 2.5t-20 3q0 23 2 54t1 61q-18 1 -43.5 1t-45.5 2q-3 12 -5 26.5t-4 30t-3 30.5t-1 28q24 2 51 1.5t48 -1.5q-1 23 -1.5 34t-0.5 19q-29 3 -60 1.5t-68 1.5q0 10 -1 24t-1.5 29
t-0.5 30v27q25 2 51 1t52 1q-9 40 -24.5 87.5t-34 96t-37 95t-33.5 84.5q6 3 18 8t25.5 9.5t27 8.5t23.5 6q18 -34 35.5 -73.5t34 -81.5t32 -83.5t28.5 -80.5q23 35 42.5 74t37.5 79t37.5 79t42.5 74z" />
    <glyph glyph-name="brokenbar" unicode="&#xa6;" horiz-adv-x="216" 
d="M126 445q-46 -7 -73 -6.5t-43 -0.5q-2 43 -3.5 92.5t-2.5 100.5t-1 101v95q9 0 25.5 0.5t33.5 1t32.5 0t23.5 -1.5q-1 -44 -1 -92.5t0.5 -98t3 -98.5t5.5 -93zM125 349q5 -52 4 -108t-3 -113t-3 -113t5 -108q-27 -9 -58.5 -14t-54.5 -8q-8 52 -8.5 111t1 118.5t3.5 117
t0 107.5q13 4 29 6t32 3t30 1h23z" />
    <glyph glyph-name="section" unicode="&#xa7;" horiz-adv-x="428" 
d="M336 541l-52 -2t-49 0q0 15 -2 31.5t-7.5 30t-15.5 22.5t-28 9q-29 0 -41 -15.5t-12 -36.5q0 -16 8 -27.5t20.5 -21t27 -17t26.5 -14.5q29 -17 54.5 -37t37.5 -56q10 -27 6.5 -56t-16.5 -55t-33.5 -47t-44.5 -32q29 -26 50.5 -56t21.5 -74q0 -29 -12 -51.5t-32 -39
t-46 -25t-53 -8.5q-38 0 -65 14t-44 37t-25.5 54t-9.5 64q25 3 47 5t46 4q1 -9 3 -21.5t7 -23.5t15 -18.5t26 -7.5q8 0 20 4.5t12 15.5q0 12 -7.5 24t-18 23t-22 21t-20.5 18q-14 13 -28.5 26t-27.5 28t-23 34t-15 43q-5 25 -5.5 50.5t4 48.5t14.5 42t26 31q-20 22 -27.5 47
t-7.5 57q0 36 13 65.5t36 50.5t54 33t68 12q36 0 63 -15.5t46 -42.5t28.5 -64t9.5 -81zM144 421q-19 -13 -26.5 -32t-6 -38t11 -35t23.5 -23q9 2 20.5 10.5t21 20.5t14.5 24.5t0 23.5t-23 25t-35 24z" />
    <glyph glyph-name="dieresis" unicode="&#xa8;" horiz-adv-x="484" 
d="M318 848q24 -1 40.5 -17t23.5 -39t3 -47.5t-21 -41.5q-9 -9 -24.5 -12.5t-32.5 -2t-32.5 7.5t-25.5 16q-16 16 -15 39.5t13 45.5t31 37t40 14zM88 850q26 -2 42 -16.5t22.5 -36t3.5 -47t-16 -49.5q-8 -15 -25.5 -19.5t-37 -1.5t-37 11.5t-25.5 18.5q-15 18 -15 42.5
t11.5 47t31.5 37.5t45 13z" />
    <glyph glyph-name="copyright" unicode="&#xa9;" horiz-adv-x="791" 
d="M224 -4q-52 14 -90 48.5t-62 79.5q-15 28 -29.5 56.5t-25 60.5t-15 69t-0.5 81q4 49 15 95t29 85.5t44.5 70t62.5 50.5q95 51 194 48.5t206 -51.5q34 -16 59.5 -44.5t43.5 -65t29.5 -79t17.5 -86.5q6 -41 5.5 -83.5t-8.5 -83t-24 -78t-41 -68.5q-34 -43 -83 -72.5
t-110 -39.5q-56 -9 -110 -8t-108 15zM543 171q19 18 31 46.5t17 62.5t3.5 70t-7.5 69q-5 26 -13.5 52t-20.5 48.5t-28.5 41t-37.5 29.5q-29 15 -67 25t-78 12t-78.5 -6.5t-66.5 -29.5q-23 -17 -38.5 -41.5t-24.5 -52.5t-14 -57t-7 -54q-6 -63 11.5 -115.5t46.5 -93.5
q16 -23 35.5 -42t45.5 -30q38 -15 84 -13.5t85 10.5q39 8 66 24.5t56 44.5zM453 539q2 -21 -0.5 -49.5t-4.5 -59.5q-25 -1 -53 -9t-48.5 -23t-28.5 -35t7 -45q8 -14 25 -19.5t36 -7.5t37 -3t30 -7q-1 -8 -1.5 -21.5t-1.5 -28.5t-3.5 -30t-6.5 -28q-37 5 -76.5 4t-73.5 13
q-38 16 -64.5 50t-26.5 85q0 40 10.5 71t28.5 54.5t41.5 40.5t49.5 30q9 4 23.5 7.5t31.5 6t35 4t34 0.5z" />
    <glyph glyph-name="ordfeminine" unicode="&#xaa;" horiz-adv-x="407" 
d="M329 248q-26 -1 -50 -3t-49 0l-2 26q-14 -11 -34.5 -17.5t-47.5 -4.5q-50 2 -79 23t-44 55t-19 77t-4 89q0 39 10 82.5t31 80t54 59.5t79 21q30 -2 49 -16l2 31q20 -1 49 -1t55 -5q-8 -125 -6.5 -244.5t6.5 -252.5zM107 493q0 -23 0.5 -46.5t5 -43t13.5 -31.5t24 -13
q17 -1 36.5 7t36.5 20q-2 58 -3 107t0 105q-14 10 -27.5 14.5t-25.5 5.5q-14 0 -25 -10.5t-18.5 -28t-12 -40t-4.5 -46.5z" />
    <glyph glyph-name="guillemotleft" unicode="&#xab;" horiz-adv-x="582" 
d="M334 494q-20 -21 -42 -39.5t-45.5 -36t-46 -35.5t-41.5 -39q37 -46 78 -86t79 -85q-24 -22 -44.5 -37.5t-43.5 -32.5q-60 57 -117.5 121t-108.5 130q30 30 55 53.5t50 44.5t52 42t61 47q5 4 12.5 9.5t14.5 11t12 9.5t6 4q28 -27 41.5 -46t27.5 -35zM422 339
q9 -18 20.5 -32t24 -27.5l25 -27t23.5 -28.5q-26 -21 -46.5 -37.5t-38.5 -30.5q-47 42 -89.5 92t-76.5 104q13 13 24 23t21 19t20 17.5t21 18.5q22 20 44 38t47 34q7 -7 17.5 -16t21 -19t20.5 -20.5t16 -20.5q-30 -24 -52 -43t-42 -44z" />
    <glyph glyph-name="logicalnot" unicode="&#xac;" horiz-adv-x="657" 
d="M554 412q10 -68 13.5 -145t1.5 -149q-20 -5 -38.5 -7t-48.5 -2q-11 0 -17.5 1t-6.5 6q-1 43 -1.5 91t-3.5 89q-56 1 -118 -0.5t-121 -4.5t-112.5 -6.5t-92.5 -6.5q-3 32 -4.5 57.5t-3.5 48.5q57 6 119 10t122 7t113 4.5t91 2.5v10q45 2 68 0t40 -6z" />
    <glyph glyph-name="uni00AD" unicode="&#xad;" horiz-adv-x="606" 
d="M526 390q2 -26 2 -51t-2 -57q-33 -1 -85.5 -1t-119 -0.5t-145 -2.5t-162.5 -6q-5 23 -8 54.5t-5 55.5q62 5 128.5 7.5t134 3t134 -0.5t128.5 -2z" />
    <glyph glyph-name="registered" unicode="&#xae;" horiz-adv-x="783" 
d="M485 728q52 -14 90 -48.5t62 -79.5q15 -28 29.5 -56.5t25 -60.5t15 -69t0.5 -81q-5 -50 -15.5 -95.5t-28.5 -85t-44.5 -70.5t-62.5 -50q-95 -51 -194 -48.5t-206 51.5q-35 16 -60.5 44.5t-43.5 65t-29 79t-17 86.5q-6 41 -5.5 83.5t8.5 83t24 78t41 68.5q34 43 83 72.5
t110 39.5q56 9 110 8t108 -15zM166 553q-20 -18 -31.5 -46.5t-16.5 -62.5t-3.5 -70t7.5 -69q5 -26 13.5 -52t20.5 -48.5t28.5 -41t37.5 -29.5q28 -15 66.5 -25t78.5 -12t78 6.5t67 29.5q23 17 38.5 41.5t24.5 52.5t14 57t7 54q6 63 -11.5 115.5t-46.5 93.5q-16 23 -35.5 42
t-45.5 30q-38 15 -84 13.5t-85 -10.5q-39 -8 -66 -24.5t-56 -44.5zM466 313q8 -29 16.5 -50.5t17.5 -50.5q-20 -14 -41.5 -22t-45.5 -16l-32 92q-11 -2 -22.5 -2.5t-19.5 -1.5q-2 -13 -4 -36t-5 -38q-9 -1 -21.5 -1.5t-26 -0.5t-26 1t-22.5 3q3 90 8.5 171.5t13.5 169.5
q1 21 17 27q54 2 99.5 -3.5t78 -22.5t50.5 -48t16 -80q-1 -31 -15 -54t-36 -37zM355 441q-2 -15 -3.5 -31t-3.5 -33q12 1 24.5 3t23 6t16.5 10t4 17q-3 16 -21 22t-40 6z" />
    <glyph glyph-name="macron" unicode="&#xaf;" horiz-adv-x="456" 
d="M390 838q0 -27 0.5 -53t-1.5 -56q-45 1 -99 0t-107 -2.5t-100.5 -2t-80.5 1.5q0 7 -0.5 22t-1 31.5t-0.5 31.5t1 22q34 0 81 1.5t99.5 3t106.5 1.5t102 -1z" />
    <glyph glyph-name="degree" unicode="&#xb0;" horiz-adv-x="347" 
d="M125 577q-36 3 -63 17.5t-42 38.5t-18.5 56.5t7.5 70.5q7 24 27 44t46.5 32.5t56 16.5t56.5 -5q34 -11 54 -46.5t16 -90.5q-9 -143 -140 -134zM103 730q-8 -19 -4 -32.5t14 -21t23.5 -7.5t25.5 8q10 7 13.5 19.5t2.5 25.5t-6 23t-13 12q-14 4 -32 -4t-24 -23z" />
    <glyph glyph-name="plusminus" unicode="&#xb1;" horiz-adv-x="525" 
d="M275 640q-2 -37 -3 -76t-3 -66h33t33 0.5t41 1t57 0.5v-21.5t-0.5 -34t-1.5 -32.5t-2 -17q-15 -3 -36 -4.5t-43 -2t-43.5 -2t-38.5 -4.5q-4 -42 -1 -83t4 -68q-13 -5 -29 -7.5t-31 -3.5t-27.5 -1.5t-19.5 -0.5q-4 30 -5.5 52t-2 39.5t-0.5 33v32.5q-13 -1 -30.5 -2
t-37 -2t-38 -1t-33.5 2q1 17 -2.5 45t-4.5 64q40 3 75.5 2.5t68.5 5.5q0 15 0.5 34.5t1 40t1 39.5t-0.5 34q6 1 22.5 1.5t35.5 0.5t36 0.5t25 0.5zM443 175q-2 -26 -2.5 -54t-2.5 -55q-45 1 -99.5 1.5t-112.5 0.5t-114.5 -1t-105.5 -4q0 1 -1 17t-2 34.5t-1.5 35t-0.5 18.5
q50 4 106 6t113.5 3t114.5 0t108 -2z" />
    <glyph glyph-name="uni00B2" unicode="&#xb2;" horiz-adv-x="416" 
d="M162 350q44 -8 82 -3t73 13q5 -25 8.5 -49t7.5 -53q-31 -15 -75.5 -19t-91.5 0t-91.5 15t-74.5 26q6 19 15.5 48.5t16.5 51.5q11 -5 17 -6q2 6 12.5 25.5t24 46t28 57t24.5 57.5t13.5 48t-4.5 29q-6 6 -19 4.5t-27.5 -5.5t-28 -9.5t-20.5 -8.5q-12 25 -19.5 44t-15.5 43
q21 18 51 29t61.5 13t60.5 -5.5t47 -25.5q24 -24 30.5 -54t2 -62.5t-17.5 -67t-29.5 -67.5t-33 -62.5t-27.5 -52.5z" />
    <glyph glyph-name="uni00B3" unicode="&#xb3;" horiz-adv-x="326" 
d="M197 510q26 -16 40 -44t12 -71q-3 -54 -22.5 -86.5t-52 -48.5t-76 -18t-94.5 6q-2 22 0 52.5t3 52.5q17 -1 38 -1.5t39 2.5t30.5 12t13.5 29q1 22 -10 34.5t-28 17.5t-38 5.5t-40 0.5q1 29 0 52.5t1 48.5q13 2 30 3.5t31.5 6t22.5 14.5t3 29q-4 16 -16.5 23t-27.5 9
t-30 2t-25 1q1 21 -0.5 50t0.5 53q42 4 77.5 1t63.5 -15t49 -33.5t34 -55.5q7 -17 8.5 -36t-2.5 -37t-12.5 -33.5t-21.5 -25.5z" />
    <glyph glyph-name="acute" unicode="&#xb4;" horiz-adv-x="320" 
d="M246 784q-36 -42 -77 -87.5t-73 -93.5q-26 7 -47.5 16.5t-52.5 26.5q34 59 79.5 113t92.5 101q22 -16 40.5 -35t37.5 -41z" />
    <glyph glyph-name="mu" unicode="&#xb5;" horiz-adv-x="468" 
d="M382 619q11 -80 14.5 -159t0.5 -157q-3 -69 -1.5 -145t4.5 -164q-5 -2 -16.5 -3.5t-26 -2.5l-29 -2t-25.5 -1q0 4 -1 12l-2 16t-1.5 16t-0.5 12q-11 -10 -20 -19t-20.5 -16.5t-26 -12t-35.5 -4.5q-32 0 -52 14.5t-37 30.5q-1 -44 3.5 -91.5t4.5 -110.5q-5 -2 -17.5 -3.5
t-28 -2l-31 -1t-26.5 -0.5q-2 67 -7 121.5t-4 105.5q1 88 6.5 171t9.5 152q1 30 3.5 66.5t5.5 73t7 69t8 54.5q23 -2 49 -3.5t52 -4.5q-4 -72 -8.5 -133t-4.5 -121q0 -19 0.5 -45t3 -55t7 -57.5t12 -51t18.5 -36.5t26 -14q27 0 44.5 22.5t27 53t13.5 61.5t4 48q5 78 3.5 156
t-11.5 156q25 1 52.5 3t52.5 2z" />
    <glyph glyph-name="mu" unicode="&#x3bc;" horiz-adv-x="468" 
d="M382 619q11 -80 14.5 -159t0.5 -157q-3 -69 -1.5 -145t4.5 -164q-5 -2 -16.5 -3.5t-26 -2.5l-29 -2t-25.5 -1q0 4 -1 12l-2 16t-1.5 16t-0.5 12q-11 -10 -20 -19t-20.5 -16.5t-26 -12t-35.5 -4.5q-32 0 -52 14.5t-37 30.5q-1 -44 3.5 -91.5t4.5 -110.5q-5 -2 -17.5 -3.5
t-28 -2l-31 -1t-26.5 -0.5q-2 67 -7 121.5t-4 105.5q1 88 6.5 171t9.5 152q1 30 3.5 66.5t5.5 73t7 69t8 54.5q23 -2 49 -3.5t52 -4.5q-4 -72 -8.5 -133t-4.5 -121q0 -19 0.5 -45t3 -55t7 -57.5t12 -51t18.5 -36.5t26 -14q27 0 44.5 22.5t27 53t13.5 61.5t4 48q5 78 3.5 156
t-11.5 156q25 1 52.5 3t52.5 2z" />
    <glyph glyph-name="paragraph" unicode="&#xb6;" horiz-adv-x="627" 
d="M501 730q14 -108 14.5 -229.5t-3.5 -245.5q-1 -37 -2.5 -69t-2.5 -65t-1.5 -69.5t-0.5 -81.5q-9 -3 -22.5 -5t-28.5 -2.5t-30.5 -1t-27.5 -1.5q-2 49 -1.5 88.5t2 73.5t3 65t1.5 63q-15 -2 -35 -2.5t-37 -1.5q-2 -35 -5.5 -68.5t-6.5 -66t-4 -63t3 -58.5
q-21 -5 -48.5 -7.5t-58.5 -6.5q-6 30 -6 63t2.5 67t6 69t4.5 68q-68 5 -117 29.5t-77 69.5q-23 36 -25.5 82.5t7 92.5t29 85t41.5 59q32 29 68.5 43.5t76 21t81 8t83.5 4.5q29 2 63 0t55 -8zM329 625q3 -70 5 -137.5t1 -130.5q6 0 17 0.5t22 1.5t19.5 2t9.5 1l2 62t0.5 63
t-2.5 66t-7 72q-8 3 -29 2.5t-38 -2.5zM157 583q-13 -12 -23.5 -37t-16 -53t-4.5 -54t11 -39q13 -18 39.5 -27t55.5 -14q2 60 3.5 125.5t-4.5 124.5q-14 -1 -31.5 -8t-29.5 -18z" />
    <glyph glyph-name="periodcentered" unicode="&#xb7;" horiz-adv-x="231" 
d="M96 415q25 0 40.5 -11t22.5 -28t6.5 -37t-7 -38.5t-17.5 -32t-25 -17.5q-23 -7 -47 -3t-41 16t-24.5 31.5t1.5 45.5q11 29 34.5 51.5t56.5 22.5z" />
    <glyph glyph-name="cedilla" unicode="&#xb8;" horiz-adv-x="295" 
d="M170 57q-2 -8 -5.5 -20t-6 -24t-4 -23t-0.5 -15q18 -14 35.5 -31t30 -38.5t16.5 -48t-5 -58.5q-8 -28 -28 -47t-45 -29.5t-53 -13t-53 2.5q-12 2 -28 6.5t-24 11.5q5 26 7.5 54.5t10.5 48.5q11 -2 28 -6t32.5 -6t28 1t14.5 16q3 18 -6 29t-24 18.5t-33 13t-33 11.5
q1 17 5 41t8.5 49t9.5 46t10 32z" />
    <glyph glyph-name="uni00B9" unicode="&#xb9;" horiz-adv-x="322" 
d="M204 733q14 -45 22.5 -105t12 -125.5t2.5 -130.5t-7 -121q-7 0 -23 1t-33 2t-32 2t-21 2q1 19 3 49t3.5 63.5t1.5 67t-3 60.5q-9 -17 -16 -38.5t-16 -42.5q-23 7 -49.5 15t-48.5 16q6 28 16.5 60t22.5 65.5t23 67.5t19 65h24q0 7 -1 12t-1 11q32 2 54 2.5t47 1.5z" />
    <glyph glyph-name="ordmasculine" unicode="&#xba;" horiz-adv-x="342" 
d="M128 854q131 9 140 -134q4 -55 -16 -90.5t-54 -46.5q-27 -9 -56.5 -5t-56 16.5t-46.5 32.5t-27 44q-11 38 -7.5 70.5t18.5 56.5t42 38.5t63 17.5zM106 701q6 -15 24 -23t32 -4q8 2 13 12t6 23t-2.5 25.5t-13.5 19.5q-12 8 -25.5 8t-23.5 -7.5t-14 -21t4 -32.5z" />
    <glyph glyph-name="guillemotright" unicode="&#xbb;" horiz-adv-x="585" 
d="M497 367q-2 -8 -3.5 -13t-4.5 -10q3 -5 6.5 -8t4.5 -11q-44 -63 -98.5 -115.5t-111.5 -104.5q-23 15 -44 32.5t-43 35.5q18 22 38 42t41 39.5t41.5 39t37.5 42.5q-38 48 -82.5 86.5t-85.5 82.5q20 20 40.5 39t43.5 33q60 -45 112.5 -102t107.5 -108zM98 157
q-29 14 -52 30.5t-46 33.5q24 32 51 56t49 56q-17 34 -41 57.5t-47 51.5q17 18 41 37.5t46 33.5q45 -39 83 -87t70 -99q-36 -46 -79 -88t-75 -82z" />
    <glyph glyph-name="onequarter" unicode="&#xbc;" horiz-adv-x="929" 
d="M623 743q-29 -90 -67 -190.5t-80 -208.5q-32 -84 -65 -168t-65 -168q-5 -14 -10 -25t-11 -27q-26 5 -55 13.5t-52 16.5q5 17 9 29t8 22.5t7.5 20.5t8.5 23q9 24 19.5 48t19.5 49q19 51 37.5 99t37.5 99q36 99 75 202.5t77 203.5q32 -8 62 -19.5t44 -19.5zM204 733
q14 -45 22.5 -105t12 -125.5t2.5 -130.5t-7 -121q-7 0 -23 1t-33 2t-32 2t-21 2q1 19 3 49t3.5 63.5t1.5 67t-3 60.5q-9 -17 -16 -38.5t-16 -42.5q-23 7 -49.5 15t-48.5 16q6 28 16.5 60t22.5 65.5t23 67.5t19 65h24q0 7 -1 12t-1 11q32 2 54 2.5t47 1.5zM672 487
q16 -8 29.5 -14t30.5 -13q-1 6 -0.5 12t0.5 11q28 1 54 -0.5t52 0.5q3 -26 4.5 -64.5t1 -83.5t-2.5 -93t-4 -93t-5 -83.5t-5 -64.5q-24 -2 -55.5 -2t-55.5 2q2 35 3 63.5t2 63.5h-38.5t-45.5 -0.5t-48.5 -1t-45.5 0.5q-2 20 -2.5 51.5t-2.5 59.5q10 2 22 2q8 27 20 58.5
t27 64.5t31.5 65t33.5 59zM728 243q2 30 3.5 63t0.5 59q-15 -27 -29.5 -58t-25.5 -64h51z" />
    <glyph glyph-name="onehalf" unicode="&#xbd;" horiz-adv-x="975" 
d="M623 743q-29 -90 -67 -190.5t-80 -208.5q-32 -84 -65 -168t-65 -168q-5 -14 -10 -25t-11 -27q-26 5 -55 13.5t-52 16.5q5 17 9 29t8 22.5t7.5 20.5t8.5 23q9 24 19.5 48t19.5 49q19 51 37.5 99t37.5 99q36 99 75 202.5t77 203.5q32 -8 62 -19.5t44 -19.5zM204 733
q14 -45 22.5 -105t12 -125.5t2.5 -130.5t-7 -121q-7 0 -23 1t-33 2t-32 2t-21 2q1 19 3 49t3.5 63.5t1.5 67t-3 60.5q-9 -17 -16 -38.5t-16 -42.5q-23 7 -49.5 15t-48.5 16q6 28 16.5 60t22.5 65.5t23 67.5t19 65h24q0 7 -1 12t-1 11q32 2 54 2.5t47 1.5zM719 93
q44 -8 82 -3t73 13q5 -25 8.5 -49t7.5 -53q-31 -15 -75.5 -19t-91.5 0t-91.5 15t-74.5 26q6 19 15.5 48.5t16.5 51.5q11 -5 17 -6q2 6 12.5 25.5t24 46t28 57t24.5 57.5t13.5 48t-4.5 29q-6 6 -19 4.5t-27.5 -5.5t-28 -9.5t-20.5 -8.5q-12 25 -19.5 44t-15.5 43q21 18 51 29
t61.5 13t60.5 -5.5t47 -25.5q24 -24 30.5 -54t2 -62.5t-17.5 -67t-29.5 -67.5t-33 -62.5t-27.5 -52.5z" />
    <glyph glyph-name="threequarters" unicode="&#xbe;" horiz-adv-x="912" 
d="M606 743q-29 -90 -67 -190.5t-80 -208.5q-32 -84 -65 -168t-65 -168q-5 -14 -10 -25t-11 -27q-26 5 -55 13.5t-52 16.5q5 17 9 29t8 22.5t7.5 20.5t8.5 23q9 24 19.5 48t19.5 49q19 51 37.5 99t37.5 99q36 99 75 202.5t77 203.5q32 -8 62 -19.5t44 -19.5zM197 510
q26 -16 40 -44t12 -71q-3 -54 -22.5 -86.5t-52 -48.5t-76 -18t-94.5 6q-2 22 0 52.5t3 52.5q17 -1 38 -1.5t39 2.5t30.5 12t13.5 29q1 22 -10 34.5t-28 17.5t-38 5.5t-40 0.5q1 29 0 52.5t1 48.5q13 2 30 3.5t31.5 6t22.5 14.5t3 29q-4 16 -16.5 23t-27.5 9t-30 2t-25 1
q1 21 -0.5 50t0.5 53q42 4 77.5 1t63.5 -15t49 -33.5t34 -55.5q7 -17 8.5 -36t-2.5 -37t-12.5 -33.5t-21.5 -25.5zM655 487q16 -8 29.5 -14t30.5 -13q-1 6 -0.5 12t0.5 11q28 1 54 -0.5t52 0.5q3 -26 4.5 -64.5t1 -83.5t-2.5 -93t-4 -93t-5 -83.5t-5 -64.5q-24 -2 -55.5 -2
t-55.5 2q2 35 3 63.5t2 63.5h-38.5t-45.5 -0.5t-48.5 -1t-45.5 0.5q-2 20 -2.5 51.5t-2.5 59.5q10 2 22 2q8 27 20 58.5t27 64.5t31.5 65t33.5 59zM711 243q2 30 3.5 63t0.5 59q-15 -27 -29.5 -58t-25.5 -64h51z" />
    <glyph glyph-name="questiondown" unicode="&#xbf;" horiz-adv-x="417" 
d="M231 571q19 4 33.5 0t25 -12.5t17 -20.5t9.5 -25q5 -21 -3.5 -38.5t-25 -28t-38.5 -13t-43 5.5q-20 7 -25 27.5t0.5 42.5t19 40.5t30.5 21.5zM155 388q24 -6 47.5 -19t54.5 -24q-17 -41 -38 -79.5t-40.5 -78.5t-35.5 -83t-23 -93q-3 -17 -2 -36.5t7 -36t17 -29t29 -16.5
q24 -5 39 4t25 25t17 36.5t15 37.5q31 -6 59 -15t49 -17q-10 -40 -26.5 -75.5t-41 -62t-59.5 -42t-81 -14.5q-42 1 -74 16.5t-53 43.5t-31.5 66t-8.5 83q2 60 18.5 114.5t39.5 104.5t49 97t48 93z" />
    <glyph glyph-name="Agrave" unicode="&#xc0;" horiz-adv-x="495" 
d="M282 729l-3 -15t-3 -13h17q19 -85 38.5 -172.5t40 -174.5t42.5 -171.5t45 -163.5q-9 -2 -24 -6t-31 -7.5t-31.5 -7t-25.5 -4.5q-11 33 -21 66.5t-24 74.5q-32 9 -67.5 10.5t-79.5 7.5q-8 -19 -14 -41.5t-11 -46t-9 -46t-8 -41.5q-31 4 -60 9t-53 10q12 83 29.5 152
t35.5 138q31 119 59 235t60 228q27 -5 53 -10.5t45 -10.5zM179 277q23 -4 47 -5.5t47 -6.5q-13 51 -21.5 100t-23.5 98q-12 -49 -25 -92t-24 -94zM282 864q-20 -14 -41.5 -30t-53.5 -27q-36 51 -72.5 100.5t-68.5 105.5q20 14 44 28.5t47 24.5q35 -50 72 -101.5t73 -100.5z
" />
    <glyph glyph-name="Aacute" unicode="&#xc1;" horiz-adv-x="495" 
d="M282 729l-3 -15t-3 -13h17q19 -85 38.5 -172.5t40 -174.5t42.5 -171.5t45 -163.5q-9 -2 -24 -6t-31 -7.5t-31.5 -7t-25.5 -4.5q-11 33 -21 66.5t-24 74.5q-32 9 -67.5 10.5t-79.5 7.5q-8 -19 -14 -41.5t-11 -46t-9 -46t-8 -41.5q-31 4 -60 9t-53 10q12 83 29.5 152
t35.5 138q31 119 59 235t60 228q27 -5 53 -10.5t45 -10.5zM179 277q23 -4 47 -5.5t47 -6.5q-13 51 -21.5 100t-23.5 98q-12 -49 -25 -92t-24 -94zM448 984q-36 -42 -77 -87.5t-73 -93.5q-26 7 -47.5 16.5t-52.5 26.5q34 59 79.5 113t92.5 101q22 -16 40.5 -35t37.5 -41z" />
    <glyph glyph-name="Acircumflex" unicode="&#xc2;" horiz-adv-x="495" 
d="M282 729l-3 -15t-3 -13h17q19 -85 38.5 -172.5t40 -174.5t42.5 -171.5t45 -163.5q-9 -2 -24 -6t-31 -7.5t-31.5 -7t-25.5 -4.5q-11 33 -21 66.5t-24 74.5q-32 9 -67.5 10.5t-79.5 7.5q-8 -19 -14 -41.5t-11 -46t-9 -46t-8 -41.5q-31 4 -60 9t-53 10q12 83 29.5 152
t35.5 138q31 119 59 235t60 228q27 -5 53 -10.5t45 -10.5zM179 277q23 -4 47 -5.5t47 -6.5q-13 51 -21.5 100t-23.5 98q-12 -49 -25 -92t-24 -94zM202 1060q26 2 50 1t38 -3q26 -56 48 -115t45 -119q-31 -8 -59.5 -13t-48.5 -8q-4 9 -8.5 22.5t-9 27.5t-8.5 27t-8 23
q-13 -24 -28 -53.5t-29 -56.5q-23 4 -50 13t-50 23q13 27 27.5 57t29.5 60t30.5 59t30.5 55z" />
    <glyph glyph-name="Atilde" unicode="&#xc3;" horiz-adv-x="495" 
d="M282 729l-3 -15t-3 -13h17q19 -85 38.5 -172.5t40 -174.5t42.5 -171.5t45 -163.5q-9 -2 -24 -6t-31 -7.5t-31.5 -7t-25.5 -4.5q-11 33 -21 66.5t-24 74.5q-32 9 -67.5 10.5t-79.5 7.5q-8 -19 -14 -41.5t-11 -46t-9 -46t-8 -41.5q-31 4 -60 9t-53 10q12 83 29.5 152
t35.5 138q31 119 59 235t60 228q27 -5 53 -10.5t45 -10.5zM179 277q23 -4 47 -5.5t47 -6.5q-13 51 -21.5 100t-23.5 98q-12 -49 -25 -92t-24 -94zM389 979q15 -20 27.5 -38.5t29.5 -42.5q-14 -14 -30.5 -28t-36 -25t-42 -17.5t-47.5 -6.5q-18 0 -32.5 6t-27.5 14.5t-25 17
t-24 14.5q-24 10 -42.5 2.5t-34.5 -16.5q-25 27 -37.5 45.5t-26.5 37.5q12 10 26.5 21t31.5 19.5t36.5 13t41.5 1.5q34 -4 55.5 -19.5t44.5 -32.5q14 -10 29.5 -7.5t30.5 10t28.5 17t24.5 14.5z" />
    <glyph glyph-name="Adieresis" unicode="&#xc4;" horiz-adv-x="495" 
d="M282 729l-3 -15t-3 -13h17q19 -85 38.5 -172.5t40 -174.5t42.5 -171.5t45 -163.5q-9 -2 -24 -6t-31 -7.5t-31.5 -7t-25.5 -4.5q-11 33 -21 66.5t-24 74.5q-32 9 -67.5 10.5t-79.5 7.5q-8 -19 -14 -41.5t-11 -46t-9 -46t-8 -41.5q-31 4 -60 9t-53 10q12 83 29.5 152
t35.5 138q31 119 59 235t60 228q27 -5 53 -10.5t45 -10.5zM179 277q23 -4 47 -5.5t47 -6.5q-13 51 -21.5 100t-23.5 98q-12 -49 -25 -92t-24 -94zM359 958q24 -1 40.5 -17t23.5 -39t3 -47.5t-21 -41.5q-9 -9 -24.5 -12.5t-32.5 -2t-32.5 7.5t-25.5 16q-16 16 -15 39.5
t13 45.5t31 37t40 14zM129 960q26 -2 42 -16.5t22.5 -36t3.5 -47t-16 -49.5q-8 -15 -25.5 -19.5t-37 -1.5t-37 11.5t-25.5 18.5q-15 18 -15 42.5t11.5 47t31.5 37.5t45 13z" />
    <glyph glyph-name="Aring" unicode="&#xc5;" horiz-adv-x="495" 
d="M234 944q131 9 140 -134q4 -55 -16 -90.5t-54 -46.5h-1q18 -82 37 -166t39 -167t40.5 -164t43.5 -157q-9 -2 -24.5 -6t-32 -7.5t-32 -7t-25.5 -4.5q-11 33 -21 66.5t-24 74.5q-32 9 -67.5 10.5t-79.5 7.5q-8 -19 -14 -41.5t-11 -46t-9 -46t-8 -41.5q-31 4 -61 9t-54 10
q12 83 29.5 152t35.5 138q27 105 52 207.5t52 202.5q-19 12 -32.5 28.5t-18.5 35.5q-11 38 -7.5 70.5t18.5 56.5t42 38.5t63 17.5zM181 277q23 -4 47 -5.5t47 -6.5q-13 51 -21.5 100t-23.5 98q-12 -49 -25 -92t-24 -94zM212 791q6 -15 24 -23t32 -4q8 2 13 12t6 23
t-2.5 25.5t-13.5 19.5q-12 8 -25.5 8t-23.5 -7.5t-14 -21t4 -32.5z" />
    <glyph glyph-name="AE" unicode="&#xc6;" horiz-adv-x="686" 
d="M229 745q16 -5 31 -9.5t34 -5.5q3 4 6 7t8 3q22 -2 45 -3t44 -2q6 -2 6.5 -8t5.5 -9q20 -2 47 -1t54 1.5t51.5 -2t41.5 -10.5q-1 -25 0 -47t-1 -51q-16 2 -40 3t-50 1t-51.5 -1t-44.5 -4q2 -23 2 -50.5t-1 -56t-3 -55.5t-3 -49q21 -1 44.5 -1t46.5 0.5t45.5 0.5t41.5 -1
q-1 -11 -0.5 -20.5t1 -21t0.5 -26.5t-2 -36q-44 -4 -91.5 -3t-92.5 -3q-2 -10 -3 -24t-1.5 -29.5t-0.5 -30.5v-27v-18t0.5 -13.5t1.5 -13.5t2 -18q49 -5 89.5 -1.5t80.5 -4.5q2 -20 2.5 -47.5t-3.5 -57.5q-72 2 -142.5 -1.5t-142.5 -0.5q-2 18 -3 40.5t-2 46t-1.5 46
t-0.5 40.5q0 24 1 53.5t3 50.5q-16 2 -37 2t-37 -2q-14 -32 -23 -68.5t-23 -69.5q-7 -16 -14 -35.5t-14 -40t-14.5 -39.5t-14.5 -34q-26 5 -55 11.5t-49 24.5q57 145 102.5 304.5t90.5 322.5q3 9 6.5 22.5l7 27t7 25t6.5 16.5q2 3 3 3h3zM242 389q10 -2 25 -2t26 2
q2 21 4 45.5t3 49.5t0 49t-4 45q-14 -47 -28 -93.5t-26 -95.5z" />
    <glyph glyph-name="Ccedilla" unicode="&#xc7;" horiz-adv-x="461" 
d="M402 519q-19 -2 -47.5 -3t-60.5 -2q-1 23 -5.5 47t-13 44t-22.5 33t-34 13q-30 0 -49.5 -12t-31.5 -31.5t-17.5 -44.5t-7 -50.5t-0.5 -49.5t3 -42q4 -33 5.5 -74.5t6 -83t13 -79.5t25.5 -64q5 -8 13 -15.5t17 -12t18.5 -4t18.5 9.5q10 11 17 26t11 31.5t6.5 34.5t4.5 35
q7 0 22.5 -0.5t33 -2t33 -3.5t22.5 -3q-5 -66 -24.5 -123t-59.5 -92q-25 -22 -58 -28q-3 -12 -4.5 -21.5t0.5 -14.5q18 -14 35.5 -31t30 -38.5t16.5 -48t-5 -58.5q-8 -28 -28 -47t-45 -29.5t-53 -13t-53 2.5q-12 2 -28 6.5t-24 11.5q5 26 7.5 54.5t10.5 48.5q11 -2 28 -6
t32.5 -6t28 1t14.5 16q3 18 -6 29t-24 18.5t-33 13t-33 11.5q2 23 7 56.5t12 62.5q-13 8 -24.5 17t-20.5 21q-25 31 -38 76t-20 95.5t-11 102.5t-10 99q-9 64 -3.5 128.5t30.5 116t72.5 83.5t122.5 32q39 0 72.5 -16.5t57.5 -47.5t37 -76t10 -103z" />
    <glyph glyph-name="Egrave" unicode="&#xc8;" horiz-adv-x="404" 
d="M294 120q3 -26 4.5 -53.5t4.5 -59.5q-37 -4 -77.5 -7t-79.5 -5.5t-75.5 -4.5t-65.5 -4q-2 38 -4 64t-2 52h6.5t7.5 1q-3 63 -3.5 139t-0.5 157.5v165t-1 162.5q44 1 84 2.5t77.5 2.5t74 0.5t74.5 -3.5q0 -24 -1 -55.5t-2 -56.5q-26 0 -48 0.5t-43.5 0t-44 -1.5t-50.5 -2
q0 -39 -0.5 -68.5t-1 -54t-0.5 -46t1 -43.5q48 -1 102 1.5t116 0.5v-25t-0.5 -29.5t-1 -30.5t-0.5 -27q-61 2 -113 -1.5t-103 -4.5q-1 -21 -1 -45t0.5 -48t1.5 -46t2 -38q42 2 83.5 4.5t79.5 6.5zM248 864q-20 -14 -41.5 -30t-53.5 -27q-36 51 -72.5 100.5t-68.5 105.5
q20 14 44 28.5t47 24.5q35 -50 72 -101.5t73 -100.5z" />
    <glyph glyph-name="Eacute" unicode="&#xc9;" horiz-adv-x="404" 
d="M294 120q3 -26 4.5 -53.5t4.5 -59.5q-37 -4 -77.5 -7t-79.5 -5.5t-75.5 -4.5t-65.5 -4q-2 38 -4 64t-2 52h6.5t7.5 1q-3 63 -3.5 139t-0.5 157.5v165t-1 162.5q44 1 84 2.5t77.5 2.5t74 0.5t74.5 -3.5q0 -24 -1 -55.5t-2 -56.5q-26 0 -48 0.5t-43.5 0t-44 -1.5t-50.5 -2
q0 -39 -0.5 -68.5t-1 -54t-0.5 -46t1 -43.5q48 -1 102 1.5t116 0.5v-25t-0.5 -29.5t-1 -30.5t-0.5 -27q-61 2 -113 -1.5t-103 -4.5q-1 -21 -1 -45t0.5 -48t1.5 -46t2 -38q42 2 83.5 4.5t79.5 6.5zM363 984q-36 -42 -77 -87.5t-73 -93.5q-26 7 -47.5 16.5t-52.5 26.5
q34 59 79.5 113t92.5 101q22 -16 40.5 -35t37.5 -41z" />
    <glyph glyph-name="Ecircumflex" unicode="&#xca;" horiz-adv-x="404" 
d="M294 120q3 -26 4.5 -53.5t4.5 -59.5q-37 -4 -77.5 -7t-79.5 -5.5t-75.5 -4.5t-65.5 -4q-2 38 -4 64t-2 52h6.5t7.5 1q-3 63 -3.5 139t-0.5 157.5v165t-1 162.5q44 1 84 2.5t77.5 2.5t74 0.5t74.5 -3.5q0 -24 -1 -55.5t-2 -56.5q-26 0 -48 0.5t-43.5 0t-44 -1.5t-50.5 -2
q0 -39 -0.5 -68.5t-1 -54t-0.5 -46t1 -43.5q48 -1 102 1.5t116 0.5v-25t-0.5 -29.5t-1 -30.5t-0.5 -27q-61 2 -113 -1.5t-103 -4.5q-1 -21 -1 -45t0.5 -48t1.5 -46t2 -38q42 2 83.5 4.5t79.5 6.5zM149 1060q26 2 50 1t38 -3q26 -56 48 -115t45 -119q-31 -8 -59.5 -13
t-48.5 -8q-4 9 -8.5 22.5t-9 27.5t-8.5 27t-8 23q-13 -24 -28 -53.5t-29 -56.5q-23 4 -50 13t-50 23q13 27 27.5 57t29.5 60t30.5 59t30.5 55z" />
    <glyph glyph-name="Edieresis" unicode="&#xcb;" horiz-adv-x="404" 
d="M294 120q3 -26 4.5 -53.5t4.5 -59.5q-37 -4 -77.5 -7t-79.5 -5.5t-75.5 -4.5t-65.5 -4q-2 38 -4 64t-2 52h6.5t7.5 1q-3 63 -3.5 139t-0.5 157.5v165t-1 162.5q44 1 84 2.5t77.5 2.5t74 0.5t74.5 -3.5q0 -24 -1 -55.5t-2 -56.5q-26 0 -48 0.5t-43.5 0t-44 -1.5t-50.5 -2
q0 -39 -0.5 -68.5t-1 -54t-0.5 -46t1 -43.5q48 -1 102 1.5t116 0.5v-25t-0.5 -29.5t-1 -30.5t-0.5 -27q-61 2 -113 -1.5t-103 -4.5q-1 -21 -1 -45t0.5 -48t1.5 -46t2 -38q42 2 83.5 4.5t79.5 6.5zM302 958q24 -1 40.5 -17t23.5 -39t3 -47.5t-21 -41.5q-9 -9 -24.5 -12.5
t-32.5 -2t-32.5 7.5t-25.5 16q-16 16 -15 39.5t13 45.5t31 37t40 14zM72 960q26 -2 42 -16.5t22.5 -36t3.5 -47t-16 -49.5q-8 -15 -25.5 -19.5t-37 -1.5t-37 11.5t-25.5 18.5q-15 18 -15 42.5t11.5 47t31.5 37.5t45 13z" />
    <glyph glyph-name="Igrave" unicode="&#xcc;" horiz-adv-x="436" 
d="M364 722q0 -9 -1 -23.5t-2 -30.5t-2.5 -31t-2.5 -26q-32 2 -61 3t-60 3q-7 -56 -9 -119t-1 -128.5t3.5 -130.5t4.5 -124q20 -2 41.5 -1t46.5 -1q0 -23 -0.5 -55.5t-2.5 -57.5q-17 -1 -39.5 0t-40.5 0q1 -6 0.5 -11.5t0.5 -10.5q-26 -2 -58 -3t-59 1q0 7 -1 12t-1 12
q-23 1 -51.5 1.5t-51.5 2.5v56.5t1 56.5q26 -1 51.5 -1.5t49.5 -0.5q-2 59 -4.5 124t-3.5 131t1 130.5t8 122.5q-2 0 -19 0.5t-37 1.5t-36.5 1.5l-16.5 0.5q1 31 2.5 60.5t3.5 52.5q38 -1 85 -2.5t95 -4t91.5 -5.5t75.5 -6zM219 864q-20 -14 -41.5 -30t-53.5 -27
q-36 51 -72.5 100.5t-68.5 105.5q20 14 44 28.5t47 24.5q35 -50 72 -101.5t73 -100.5z" />
    <glyph glyph-name="Iacute" unicode="&#xcd;" horiz-adv-x="436" 
d="M364 722q0 -9 -1 -23.5t-2 -30.5t-2.5 -31t-2.5 -26q-32 2 -61 3t-60 3q-7 -56 -9 -119t-1 -128.5t3.5 -130.5t4.5 -124q20 -2 41.5 -1t46.5 -1q0 -23 -0.5 -55.5t-2.5 -57.5q-17 -1 -39.5 0t-40.5 0q1 -6 0.5 -11.5t0.5 -10.5q-26 -2 -58 -3t-59 1q0 7 -1 12t-1 12
q-23 1 -51.5 1.5t-51.5 2.5v56.5t1 56.5q26 -1 51.5 -1.5t49.5 -0.5q-2 59 -4.5 124t-3.5 131t1 130.5t8 122.5q-2 0 -19 0.5t-37 1.5t-36.5 1.5l-16.5 0.5q1 31 2.5 60.5t3.5 52.5q38 -1 85 -2.5t95 -4t91.5 -5.5t75.5 -6zM375 984q-36 -42 -77 -87.5t-73 -93.5
q-26 7 -47.5 16.5t-52.5 26.5q34 59 79.5 113t92.5 101q22 -16 40.5 -35t37.5 -41z" />
    <glyph glyph-name="Icircumflex" unicode="&#xce;" horiz-adv-x="436" 
d="M364 722q0 -9 -1 -23.5t-2 -30.5t-2.5 -31t-2.5 -26q-32 2 -61 3t-60 3q-7 -56 -9 -119t-1 -128.5t3.5 -130.5t4.5 -124q20 -2 41.5 -1t46.5 -1q0 -23 -0.5 -55.5t-2.5 -57.5q-17 -1 -39.5 0t-40.5 0q1 -6 0.5 -11.5t0.5 -10.5q-26 -2 -58 -3t-59 1q0 7 -1 12t-1 12
q-23 1 -51.5 1.5t-51.5 2.5v56.5t1 56.5q26 -1 51.5 -1.5t49.5 -0.5q-2 59 -4.5 124t-3.5 131t1 130.5t8 122.5q-2 0 -19 0.5t-37 1.5t-36.5 1.5l-16.5 0.5q1 31 2.5 60.5t3.5 52.5q38 -1 85 -2.5t95 -4t91.5 -5.5t75.5 -6zM153 1060q26 2 50 1t38 -3q26 -56 48 -115
t45 -119q-31 -8 -59.5 -13t-48.5 -8q-4 9 -8.5 22.5t-9 27.5t-8.5 27t-8 23q-13 -24 -28 -53.5t-29 -56.5q-23 4 -50 13t-50 23q13 27 27.5 57t29.5 60t30.5 59t30.5 55z" />
    <glyph glyph-name="Idieresis" unicode="&#xcf;" horiz-adv-x="436" 
d="M364 722q0 -9 -1 -23.5t-2 -30.5t-2.5 -31t-2.5 -26q-32 2 -61 3t-60 3q-7 -56 -9 -119t-1 -128.5t3.5 -130.5t4.5 -124q20 -2 41.5 -1t46.5 -1q0 -23 -0.5 -55.5t-2.5 -57.5q-17 -1 -39.5 0t-40.5 0q1 -6 0.5 -11.5t0.5 -10.5q-26 -2 -58 -3t-59 1q0 7 -1 12t-1 12
q-23 1 -51.5 1.5t-51.5 2.5v56.5t1 56.5q26 -1 51.5 -1.5t49.5 -0.5q-2 59 -4.5 124t-3.5 131t1 130.5t8 122.5q-2 0 -19 0.5t-37 1.5t-36.5 1.5l-16.5 0.5q1 31 2.5 60.5t3.5 52.5q38 -1 85 -2.5t95 -4t91.5 -5.5t75.5 -6zM314 958q24 -1 40.5 -17t23.5 -39t3 -47.5
t-21 -41.5q-9 -9 -24.5 -12.5t-32.5 -2t-32.5 7.5t-25.5 16q-16 16 -15 39.5t13 45.5t31 37t40 14zM84 960q26 -2 42 -16.5t22.5 -36t3.5 -47t-16 -49.5q-8 -15 -25.5 -19.5t-37 -1.5t-37 11.5t-25.5 18.5q-15 18 -15 42.5t11.5 47t31.5 37.5t45 13z" />
    <glyph glyph-name="Eth" unicode="&#xd0;" horiz-adv-x="486" 
d="M173 736q3 -5 2 -14t2 -14q48 -13 88 -33.5t68 -52.5q21 -23 40 -59t32.5 -79t20.5 -90.5t4.5 -94.5t-16.5 -90.5t-42 -77.5q-35 -42 -80.5 -73t-99.5 -53q-2 -11 -3.5 -20t-5.5 -17q-16 -1 -45 2t-61 15q5 67 5 145t-2 148q-16 1 -38 0.5t-37 0.5q-2 26 -4 56t0 54
q17 3 37 3t34 2q0 37 -3.5 93.5t0.5 125.5q-8 5 -17 7t-20 8q1 22 2.5 50t7.5 48q10 2 15.5 5t9.5 14q26 0 55 -2.5t51 -6.5zM283 204q26 29 31.5 77t-2.5 98t-25.5 94.5t-38.5 66.5q-14 15 -30 26t-36 17q-3 -45 -1.5 -93t3.5 -98q19 -2 37.5 -0.5t38.5 -2.5q1 -26 1 -56
t-2 -52q-17 -1 -34.5 -0.5t-34.5 -1.5q1 -34 1 -72t2 -73q30 11 50.5 30t39.5 40z" />
    <glyph glyph-name="Ntilde" unicode="&#xd1;" horiz-adv-x="462" 
d="M349 980q13 -24 22 -47.5t23 -43.5q-28 -29 -60.5 -47t-83.5 -20q-18 -1 -32.5 5t-27.5 14.5t-25 17.5t-24 15q-24 10 -42.5 2.5t-34.5 -16.5q-25 27 -37.5 45.5t-26.5 37.5q12 10 26.5 21t31.5 19.5t36.5 13t41.5 1.5q34 -4 55.5 -19.5t44.5 -32.5q16 -12 31.5 -10
t29.5 10t27 18.5t25 15.5zM379 733q5 -97 7 -189t-1 -182t-12 -179.5t-26 -182.5q-26 -2 -54.5 -3.5t-49.5 -3.5q-20 41 -34 81.5t-26 81.5t-22.5 82t-23.5 84q-1 -38 -1 -80v-83.5v-81.5t-1 -74q-29 -3 -62 -2.5t-58 1.5q2 84 2 175t-1.5 184.5t-2.5 186.5t0 181
q24 0 55 0.5t55 0.5q2 -7 1 -15.5t-1 -16.5q0 -4 4 -5t9.5 -1.5l11 -1t8.5 -2.5q30 -88 54.5 -188t47.5 -195q4 49 6 103t1.5 109t-2.5 109t-6 103q25 2 59.5 3t62.5 1z" />
    <glyph glyph-name="Ograve" unicode="&#xd2;" horiz-adv-x="538" 
d="M284 864q-20 -14 -41.5 -30t-53.5 -27q-36 51 -72.5 100.5t-68.5 105.5q20 14 44 28.5t47 24.5q35 -50 72 -101.5t73 -100.5zM284 736q32 -9 59 -36.5t45 -75.5q17 12 23 17t16 12q10 -17 27 -45t33 -54q-14 -14 -31.5 -26.5t-40.5 -27.5q5 -51 7 -99.5t-3 -99.5
q-3 -32 -8 -68.5t-14.5 -72.5t-24.5 -68.5t-37 -57.5t-52.5 -39.5t-71.5 -14.5q-46 0 -79.5 17.5t-57 47t-38.5 66.5t-23.5 76.5t-12 77.5t-4.5 68q-2 83 12.5 160.5t55.5 144.5q18 28 41.5 51t51.5 36.5t60 17t67 -6.5zM211 100q29 0 47 26.5t28 62t14 70.5t6 52
q3 35 3.5 68t-1.5 70q-24 -6 -52 -7.5t-54 4.5t-47.5 19.5t-32.5 36.5q-5 -24 -12 -67t-5 -99q0 -21 4.5 -60.5t16.5 -78.5t32.5 -68t52.5 -29zM293 565q-8 28 -20 41t-27 17q-17 5 -37 1.5t-28 -19.5q6 -17 19 -27t29 -14t33 -3.5t31 4.5z" />
    <glyph glyph-name="Oacute" unicode="&#xd3;" horiz-adv-x="538" 
d="M449 984q-36 -42 -77 -87.5t-73 -93.5q-26 7 -47.5 16.5t-52.5 26.5q34 59 79.5 113t92.5 101q22 -16 40.5 -35t37.5 -41zM284 736q32 -9 59 -36.5t45 -75.5q17 12 23 17t16 12q10 -17 27 -45t33 -54q-14 -14 -31.5 -26.5t-40.5 -27.5q5 -51 7 -99.5t-3 -99.5
q-3 -32 -8 -68.5t-14.5 -72.5t-24.5 -68.5t-37 -57.5t-52.5 -39.5t-71.5 -14.5q-46 0 -79.5 17.5t-57 47t-38.5 66.5t-23.5 76.5t-12 77.5t-4.5 68q-2 83 12.5 160.5t55.5 144.5q18 28 41.5 51t51.5 36.5t60 17t67 -6.5zM211 100q29 0 47 26.5t28 62t14 70.5t6 52
q3 35 3.5 68t-1.5 70q-24 -6 -52 -7.5t-54 4.5t-47.5 19.5t-32.5 36.5q-5 -24 -12 -67t-5 -99q0 -21 4.5 -60.5t16.5 -78.5t32.5 -68t52.5 -29zM293 565q-8 28 -20 41t-27 17q-17 5 -37 1.5t-28 -19.5q6 -17 19 -27t29 -14t33 -3.5t31 4.5z" />
    <glyph glyph-name="Ocircumflex" unicode="&#xd4;" horiz-adv-x="538" 
d="M216 1060q26 2 50 1t38 -3q26 -56 48 -115t45 -119q-31 -8 -59.5 -13t-48.5 -8q-4 9 -8.5 22.5t-9 27.5t-8.5 27t-8 23q-13 -24 -28 -53.5t-29 -56.5q-23 4 -50 13t-50 23q13 27 27.5 57t29.5 60t30.5 59t30.5 55zM284 736q32 -9 59 -36.5t45 -75.5q17 12 23 17t16 12
q10 -17 27 -45t33 -54q-14 -14 -31.5 -26.5t-40.5 -27.5q5 -51 7 -99.5t-3 -99.5q-3 -32 -8 -68.5t-14.5 -72.5t-24.5 -68.5t-37 -57.5t-52.5 -39.5t-71.5 -14.5q-46 0 -79.5 17.5t-57 47t-38.5 66.5t-23.5 76.5t-12 77.5t-4.5 68q-2 83 12.5 160.5t55.5 144.5
q18 28 41.5 51t51.5 36.5t60 17t67 -6.5zM211 100q29 0 47 26.5t28 62t14 70.5t6 52q3 35 3.5 68t-1.5 70q-24 -6 -52 -7.5t-54 4.5t-47.5 19.5t-32.5 36.5q-5 -24 -12 -67t-5 -99q0 -21 4.5 -60.5t16.5 -78.5t32.5 -68t52.5 -29zM293 565q-8 28 -20 41t-27 17
q-17 5 -37 1.5t-28 -19.5q6 -17 19 -27t29 -14t33 -3.5t31 4.5z" />
    <glyph glyph-name="Otilde" unicode="&#xd5;" horiz-adv-x="538" 
d="M284 736q32 -9 59 -36.5t45 -75.5q17 12 23 17t16 12q10 -17 27 -45t33 -54q-14 -14 -31.5 -26.5t-40.5 -27.5q5 -51 7 -99.5t-3 -99.5q-3 -32 -8 -68.5t-14.5 -72.5t-24.5 -68.5t-37 -57.5t-52.5 -39.5t-71.5 -14.5q-46 0 -79.5 17.5t-57 47t-38.5 66.5t-23.5 76.5
t-12 77.5t-4.5 68q-2 83 12.5 160.5t55.5 144.5q18 28 41.5 51t51.5 36.5t60 17t67 -6.5zM211 100q29 0 47 26.5t28 62t14 70.5t6 52q3 35 3.5 68t-1.5 70q-24 -6 -52 -7.5t-54 4.5t-47.5 19.5t-32.5 36.5q-5 -24 -12 -67t-5 -99q0 -21 4.5 -60.5t16.5 -78.5t32.5 -68
t52.5 -29zM293 565q-8 28 -20 41t-27 17q-17 5 -37 1.5t-28 -19.5q6 -17 19 -27t29 -14t33 -3.5t31 4.5zM389 979q15 -20 27.5 -38.5t29.5 -42.5q-14 -14 -30.5 -28t-36 -25t-42 -17.5t-47.5 -6.5q-18 0 -32.5 6t-27.5 14.5t-25 17t-24 14.5q-24 10 -42.5 2.5t-34.5 -16.5
q-25 27 -37.5 45.5t-26.5 37.5q12 10 26.5 21t31.5 19.5t36.5 13t41.5 1.5q34 -4 55.5 -19.5t44.5 -32.5q14 -10 29.5 -7.5t30.5 10t28.5 17t24.5 14.5z" />
    <glyph glyph-name="Odieresis" unicode="&#xd6;" horiz-adv-x="538" 
d="M354 958q24 -1 40.5 -17t23.5 -39t3 -47.5t-21 -41.5q-9 -9 -24.5 -12.5t-32.5 -2t-32.5 7.5t-25.5 16q-16 16 -15 39.5t13 45.5t31 37t40 14zM124 960q26 -2 42 -16.5t22.5 -36t3.5 -47t-16 -49.5q-8 -15 -25.5 -19.5t-37 -1.5t-37 11.5t-25.5 18.5q-15 18 -15 42.5
t11.5 47t31.5 37.5t45 13zM284 736q32 -9 59 -36.5t45 -75.5q17 12 23 17t16 12q10 -17 27 -45t33 -54q-14 -14 -31.5 -26.5t-40.5 -27.5q5 -51 7 -99.5t-3 -99.5q-3 -32 -8 -68.5t-14.5 -72.5t-24.5 -68.5t-37 -57.5t-52.5 -39.5t-71.5 -14.5q-46 0 -79.5 17.5t-57 47
t-38.5 66.5t-23.5 76.5t-12 77.5t-4.5 68q-2 83 12.5 160.5t55.5 144.5q18 28 41.5 51t51.5 36.5t60 17t67 -6.5zM211 100q29 0 47 26.5t28 62t14 70.5t6 52q3 35 3.5 68t-1.5 70q-24 -6 -52 -7.5t-54 4.5t-47.5 19.5t-32.5 36.5q-5 -24 -12 -67t-5 -99q0 -21 4.5 -60.5
t16.5 -78.5t32.5 -68t52.5 -29zM293 565q-8 28 -20 41t-27 17q-17 5 -37 1.5t-28 -19.5q6 -17 19 -27t29 -14t33 -3.5t31 4.5z" />
    <glyph glyph-name="multiply" unicode="&#xd7;" horiz-adv-x="431" 
d="M238 308q14 -30 34 -57t32 -50q-18 -14 -41 -26t-54 -21q-12 13 -23 31.5t-24 37.5q-20 -14 -37 -36t-36 -36q-21 8 -43 24t-45 37q10 11 17.5 18t13 12t10 10.5t10.5 13.5q11 15 24.5 28t24.5 29q-23 37 -50.5 73t-47.5 79q19 12 41 24.5t46 19.5q20 -32 39.5 -60
t44.5 -53q32 26 58 58t62 55q20 -13 37 -31.5t37 -40.5q-11 -9 -27.5 -25t-34.5 -35.5t-36 -40t-32 -38.5z" />
    <glyph glyph-name="Oslash" unicode="&#xd8;" horiz-adv-x="621" 
d="M501 338q0 -40 -1.5 -83t-7.5 -83.5t-19 -77t-36 -64t-57.5 -43.5t-84.5 -16q-58 0 -93.5 20.5t-55.5 55.5l-48 -68q-22 11 -50 29t-48 33l104 156q-4 34 -7.5 79t-5 94.5t1 100.5t10.5 97.5t23.5 86t39.5 65.5q22 24 53.5 36t64.5 11.5t63.5 -12.5t51.5 -36
q8 -9 15 -18.5t13 -19.5l52 77q25 -17 49.5 -35t44.5 -35l-93 -143q12 -51 16.5 -104t4.5 -103zM387 403l-79 -118.5t-79 -116.5q10 -35 26 -57t41 -22q26 0 43 15t27.5 38.5t15.5 52.5t6.5 57t1 52.5t-0.5 39.5q0 14 -0.5 28.5t-1.5 30.5zM208 430q0 -8 -0.5 -28.5
t0.5 -48.5l146 219q-11 30 -27 54q-16 23 -40.5 23.5t-43.5 -19.5q-14 -14 -21 -40t-10.5 -55.5t-3.5 -58v-46.5z" />
    <glyph glyph-name="Ugrave" unicode="&#xd9;" horiz-adv-x="465" 
d="M31 705q22 -1 50.5 -3.5t63.5 -6.5q-6 -62 -12 -144t-11 -164q-1 -17 -2 -45t-1 -60t2.5 -64t9 -58.5t18.5 -43t31 -16.5q38 0 59.5 26.5t32 63.5t13 76t2.5 63q0 52 -3.5 107.5t-7.5 108.5t-7.5 102t-1.5 89q16 -1 49.5 -2t61.5 -3q0 -42 4 -90.5t8 -99.5t8 -104t4 -105
q1 -59 -7.5 -121t-33 -114t-68.5 -85t-115 -33q-52 0 -85 22t-53 57.5t-28.5 81t-10.5 91.5t0 89.5t4 75.5q5 80 11.5 161.5t14.5 147.5zM248 864q-20 -14 -41.5 -30t-53.5 -27q-36 51 -72.5 100.5t-68.5 105.5q20 14 44 28.5t47 24.5q35 -50 72 -101.5t73 -100.5z" />
    <glyph glyph-name="Uacute" unicode="&#xda;" horiz-adv-x="465" 
d="M31 705q22 -1 50.5 -3.5t63.5 -6.5q-6 -62 -12 -144t-11 -164q-1 -17 -2 -45t-1 -60t2.5 -64t9 -58.5t18.5 -43t31 -16.5q38 0 59.5 26.5t32 63.5t13 76t2.5 63q0 52 -3.5 107.5t-7.5 108.5t-7.5 102t-1.5 89q16 -1 49.5 -2t61.5 -3q0 -42 4 -90.5t8 -99.5t8 -104t4 -105
q1 -59 -7.5 -121t-33 -114t-68.5 -85t-115 -33q-52 0 -85 22t-53 57.5t-28.5 81t-10.5 91.5t0 89.5t4 75.5q5 80 11.5 161.5t14.5 147.5zM389 984q-36 -42 -77 -87.5t-73 -93.5q-26 7 -47.5 16.5t-52.5 26.5q34 59 79.5 113t92.5 101q22 -16 40.5 -35t37.5 -41z" />
    <glyph glyph-name="Ucircumflex" unicode="&#xdb;" horiz-adv-x="465" 
d="M31 705q22 -1 50.5 -3.5t63.5 -6.5q-6 -62 -12 -144t-11 -164q-1 -17 -2 -45t-1 -60t2.5 -64t9 -58.5t18.5 -43t31 -16.5q38 0 59.5 26.5t32 63.5t13 76t2.5 63q0 52 -3.5 107.5t-7.5 108.5t-7.5 102t-1.5 89q16 -1 49.5 -2t61.5 -3q0 -42 4 -90.5t8 -99.5t8 -104t4 -105
q1 -59 -7.5 -121t-33 -114t-68.5 -85t-115 -33q-52 0 -85 22t-53 57.5t-28.5 81t-10.5 91.5t0 89.5t4 75.5q5 80 11.5 161.5t14.5 147.5zM175 1060q26 2 50 1t38 -3q26 -56 48 -115t45 -119q-31 -8 -59.5 -13t-48.5 -8q-4 9 -8.5 22.5t-9 27.5t-8.5 27t-8 23
q-13 -24 -28 -53.5t-29 -56.5q-23 4 -50 13t-50 23q13 27 27.5 57t29.5 60t30.5 59t30.5 55z" />
    <glyph glyph-name="Udieresis" unicode="&#xdc;" horiz-adv-x="465" 
d="M31 705q22 -1 50.5 -3.5t63.5 -6.5q-6 -62 -12 -144t-11 -164q-1 -17 -2 -45t-1 -60t2.5 -64t9 -58.5t18.5 -43t31 -16.5q38 0 59.5 26.5t32 63.5t13 76t2.5 63q0 52 -3.5 107.5t-7.5 108.5t-7.5 102t-1.5 89q16 -1 49.5 -2t61.5 -3q0 -42 4 -90.5t8 -99.5t8 -104t4 -105
q1 -59 -7.5 -121t-33 -114t-68.5 -85t-115 -33q-52 0 -85 22t-53 57.5t-28.5 81t-10.5 91.5t0 89.5t4 75.5q5 80 11.5 161.5t14.5 147.5zM329 958q24 -1 40.5 -17t23.5 -39t3 -47.5t-21 -41.5q-9 -9 -24.5 -12.5t-32.5 -2t-32.5 7.5t-25.5 16q-16 16 -15 39.5t13 45.5t31 37
t40 14zM99 960q26 -2 42 -16.5t22.5 -36t3.5 -47t-16 -49.5q-8 -15 -25.5 -19.5t-37 -1.5t-37 11.5t-25.5 18.5q-15 18 -15 42.5t11.5 47t31.5 37.5t45 13z" />
    <glyph glyph-name="Yacute" unicode="&#xdd;" horiz-adv-x="605" 
d="M272 0q-58 -1 -115 0q2 39 3.5 84t2 92.5t-0.5 95t-4 89.5q-46 92 -84 172t-74 143q23 14 49 25.5t54 23.5q36 -60 69.5 -129t65.5 -133q26 34 57.5 74.5t62 80t57.5 74t44 56.5q18 -11 43.5 -31t46.5 -37q-18 -24 -48.5 -64.5t-67.5 -89t-77 -103t-79 -106.5
q1 -78 -1 -158.5t-4 -158.5zM473 984q-36 -42 -77 -87.5t-73 -93.5q-26 7 -47.5 16.5t-52.5 26.5q34 59 79.5 113t92.5 101q22 -16 40.5 -35t37.5 -41z" />
    <glyph glyph-name="Thorn" unicode="&#xde;" 
d="M119 734v-76t2 -74q53 -2 93.5 -16.5t68.5 -42.5q22 -22 40.5 -57.5t28.5 -76.5t7 -84t-24 -79q-35 -60 -92 -86.5t-124 -24.5q-2 -37 -1 -71.5t1 -63.5q-10 -2 -24.5 -2.5t-29.5 -1t-30 0t-27 2.5q-3 186 -1.5 375t1.5 378q24 1 53 2t58 -2zM121 468q1 -26 0.5 -55
t-1 -60t-1.5 -61t0 -57q17 -1 35.5 1t35 7t29.5 14.5t18 23.5q8 22 7.5 44.5t-7.5 43.5t-18.5 39t-24.5 31q-9 8 -26 19.5t-47 9.5z" />
    <glyph glyph-name="germandbls" unicode="&#xdf;" horiz-adv-x="512" 
d="M344 401q32 -11 53 -44t29.5 -76.5t3 -91t-26.5 -86.5q-14 -27 -39.5 -46t-57.5 -31t-67.5 -16t-69.5 0q-7 20 -11.5 42.5t-10.5 54.5q27 1 52.5 3t47 7.5t39 16.5t27.5 30q13 24 14 49.5t-7.5 48t-24 40t-35.5 25.5q-16 5 -32 2.5t-32 -0.5q-8 22 -13.5 46.5t-11.5 52.5
q18 8 37 16t36 17q15 8 30.5 18.5t26.5 24t16.5 30.5t0.5 39q-3 14 -14 22t-27 12.5t-35 5.5t-37 1q-19 0 -37.5 -0.5t-35.5 -1.5q1 -69 -1.5 -144.5t-6 -153.5t-6 -157t-1.5 -157q-15 -2 -31.5 -2t-31.5 0.5t-27.5 0t-18.5 -1.5q-3 79 -1 151.5t5 143t6.5 139.5t5.5 140
q2 59 2 94.5v64.5q44 -1 89.5 -1t95.5 -1q43 0 77.5 -3.5t61 -14.5t45.5 -32.5t31 -57.5q9 -28 9 -60.5t-10 -63t-30.5 -56t-50.5 -39.5z" />
    <glyph glyph-name="agrave" unicode="&#xe0;" 
d="M249 641q10 1 24 2t29.5 2t30 1t25.5 -1q8 -30 12.5 -77.5t6.5 -105t2 -121t-1 -127t-3.5 -123t-4.5 -107.5q-20 -1 -51.5 -2t-53.5 2q-1 5 -0.5 9.5t-0.5 12.5q-23 -13 -52.5 -17t-57.5 1q-44 8 -74 36t-47.5 67.5t-25 88t-6.5 98.5q0 36 4 81t14.5 89.5t29 83
t47.5 61.5t66.5 26.5t89.5 -2.5q-1 6 -1.5 10zM115 283q0 -32 2.5 -63t9.5 -56t19.5 -42t32.5 -21q11 -3 24 -2t25 5.5t21.5 11.5t14.5 17q3 39 4.5 87.5t2 98.5t-1.5 98.5t-7 88.5q-17 7 -44.5 8t-43.5 -9q-20 -14 -31.5 -42.5t-17.5 -62t-8 -65.5t-2 -52zM296 734
q-20 -14 -41.5 -30t-53.5 -27q-36 51 -72.5 100.5t-68.5 105.5q20 14 44 28.5t47 24.5q35 -50 72 -101.5t73 -100.5z" />
    <glyph glyph-name="aacute" unicode="&#xe1;" 
d="M249 641q10 1 24 2t29.5 2t30 1t25.5 -1q8 -30 12.5 -77.5t6.5 -105t2 -121t-1 -127t-3.5 -123t-4.5 -107.5q-20 -1 -51.5 -2t-53.5 2q-1 5 -0.5 9.5t-0.5 12.5q-23 -13 -52.5 -17t-57.5 1q-44 8 -74 36t-47.5 67.5t-25 88t-6.5 98.5q0 36 4 81t14.5 89.5t29 83
t47.5 61.5t66.5 26.5t89.5 -2.5q-1 6 -1.5 10zM115 283q0 -32 2.5 -63t9.5 -56t19.5 -42t32.5 -21q11 -3 24 -2t25 5.5t21.5 11.5t14.5 17q3 39 4.5 87.5t2 98.5t-1.5 98.5t-7 88.5q-17 7 -44.5 8t-43.5 -9q-20 -14 -31.5 -42.5t-17.5 -62t-8 -65.5t-2 -52zM401 854
q-36 -42 -77 -87.5t-73 -93.5q-26 7 -47.5 16.5t-52.5 26.5q34 59 79.5 113t92.5 101q22 -16 40.5 -35t37.5 -41z" />
    <glyph glyph-name="acircumflex" unicode="&#xe2;" 
d="M249 641q10 1 24 2t29.5 2t30 1t25.5 -1q8 -30 12.5 -77.5t6.5 -105t2 -121t-1 -127t-3.5 -123t-4.5 -107.5q-20 -1 -51.5 -2t-53.5 2q-1 5 -0.5 9.5t-0.5 12.5q-23 -13 -52.5 -17t-57.5 1q-44 8 -74 36t-47.5 67.5t-25 88t-6.5 98.5q0 36 4 81t14.5 89.5t29 83
t47.5 61.5t66.5 26.5t89.5 -2.5q-1 6 -1.5 10zM115 283q0 -32 2.5 -63t9.5 -56t19.5 -42t32.5 -21q11 -3 24 -2t25 5.5t21.5 11.5t14.5 17q3 39 4.5 87.5t2 98.5t-1.5 98.5t-7 88.5q-17 7 -44.5 8t-43.5 -9q-20 -14 -31.5 -42.5t-17.5 -62t-8 -65.5t-2 -52zM177 930
q26 2 50 1t38 -3q26 -56 48 -115t45 -119q-31 -8 -59.5 -13t-48.5 -8q-4 9 -8.5 22.5t-9 27.5t-8.5 27t-8 23q-13 -24 -28 -53.5t-29 -56.5q-23 4 -50 13t-50 23q13 27 27.5 57t29.5 60t30.5 59t30.5 55z" />
    <glyph glyph-name="atilde" unicode="&#xe3;" 
d="M249 641q10 1 24 2t29.5 2t30 1t25.5 -1q8 -30 12.5 -77.5t6.5 -105t2 -121t-1 -127t-3.5 -123t-4.5 -107.5q-20 -1 -51.5 -2t-53.5 2q-1 5 -0.5 9.5t-0.5 12.5q-23 -13 -52.5 -17t-57.5 1q-44 8 -74 36t-47.5 67.5t-25 88t-6.5 98.5q0 36 4 81t14.5 89.5t29 83
t47.5 61.5t66.5 26.5t89.5 -2.5q-1 6 -1.5 10zM115 283q0 -32 2.5 -63t9.5 -56t19.5 -42t32.5 -21q11 -3 24 -2t25 5.5t21.5 11.5t14.5 17q3 39 4.5 87.5t2 98.5t-1.5 98.5t-7 88.5q-17 7 -44.5 8t-43.5 -9q-20 -14 -31.5 -42.5t-17.5 -62t-8 -65.5t-2 -52zM376 850
q15 -20 27.5 -38.5t29.5 -42.5q-14 -14 -30.5 -28t-36 -25t-42 -17.5t-47.5 -6.5q-18 0 -32.5 6t-27.5 14.5t-25 17t-24 14.5q-24 10 -42.5 2.5t-34.5 -16.5q-25 27 -37.5 45.5t-26.5 37.5q12 10 26.5 21t31.5 19.5t36.5 13t41.5 1.5q34 -4 55.5 -19.5t44.5 -32.5
q14 -10 29.5 -7.5t30.5 10t28.5 17t24.5 14.5z" />
    <glyph glyph-name="adieresis" unicode="&#xe4;" 
d="M249 641q10 1 24 2t29.5 2t30 1t25.5 -1q8 -30 12.5 -77.5t6.5 -105t2 -121t-1 -127t-3.5 -123t-4.5 -107.5q-20 -1 -51.5 -2t-53.5 2q-1 5 -0.5 9.5t-0.5 12.5q-23 -13 -52.5 -17t-57.5 1q-44 8 -74 36t-47.5 67.5t-25 88t-6.5 98.5q0 36 4 81t14.5 89.5t29 83
t47.5 61.5t66.5 26.5t89.5 -2.5q-1 6 -1.5 10zM115 283q0 -32 2.5 -63t9.5 -56t19.5 -42t32.5 -21q11 -3 24 -2t25 5.5t21.5 11.5t14.5 17q3 39 4.5 87.5t2 98.5t-1.5 98.5t-7 88.5q-17 7 -44.5 8t-43.5 -9q-20 -14 -31.5 -42.5t-17.5 -62t-8 -65.5t-2 -52zM353 848
q24 -1 40.5 -17t23.5 -39t3 -47.5t-21 -41.5q-9 -9 -24.5 -12.5t-32.5 -2t-32.5 7.5t-25.5 16q-16 16 -15 39.5t13 45.5t31 37t40 14zM123 850q26 -2 42 -16.5t22.5 -36t3.5 -47t-16 -49.5q-8 -15 -25.5 -19.5t-37 -1.5t-37 11.5t-25.5 18.5q-15 18 -15 42.5t11.5 47
t31.5 37.5t45 13z" />
    <glyph glyph-name="aring" unicode="&#xe5;" 
d="M249 641q10 1 24 2t29.5 2t30 1t25.5 -1q8 -30 12.5 -77.5t6.5 -105t2 -121t-1 -127t-3.5 -123t-4.5 -107.5q-20 -1 -51.5 -2t-53.5 2q-1 5 -0.5 9.5t-0.5 12.5q-23 -13 -52.5 -17t-57.5 1q-44 8 -74 36t-47.5 67.5t-25 88t-6.5 98.5q0 36 4 81t14.5 89.5t29 83
t47.5 61.5t66.5 26.5t89.5 -2.5q-1 6 -1.5 10zM115 283q0 -32 2.5 -63t9.5 -56t19.5 -42t32.5 -21q11 -3 24 -2t25 5.5t21.5 11.5t14.5 17q3 39 4.5 87.5t2 98.5t-1.5 98.5t-7 88.5q-17 7 -44.5 8t-43.5 -9q-20 -14 -31.5 -42.5t-17.5 -62t-8 -65.5t-2 -52zM224 944
q131 9 140 -134q4 -55 -16 -90.5t-54 -46.5q-27 -9 -56.5 -5t-56 16.5t-46.5 32.5t-27 44q-11 38 -7.5 70.5t18.5 56.5t42 38.5t63 17.5zM202 791q6 -15 24 -23t32 -4q8 2 13 12t6 23t-2.5 25.5t-13.5 19.5q-12 8 -25.5 8t-23.5 -7.5t-14 -21t4 -32.5z" />
    <glyph glyph-name="ae" unicode="&#xe6;" horiz-adv-x="740" 
d="M658 253q-39 -4 -77.5 -4.5t-74.5 -0.5h-68t-59 -4q0 -17 0.5 -37t4 -39t11 -35.5t22.5 -26.5q22 -14 54 -14.5t59 10.5q4 -21 8 -51.5t6 -54.5q-43 -16 -92 -15t-91 22q-4 2 -10 6.5t-10 6.5q-34 -17 -72.5 -27t-76 -9.5t-72.5 11.5t-61.5 35t-42.5 61.5t-16 91.5
q0 73 27.5 114t68 60t86.5 22.5t84 3.5q1 9 1.5 18t0.5 19q0 41 -15 65.5t-40 35.5t-57.5 11t-68.5 -8q-7 15 -11.5 27l-9 24t-8.5 25t-9 30q28 10 65.5 15t75.5 1t71.5 -19.5t53.5 -47.5q21 31 55 50t85 19q54 0 87.5 -23.5t53 -62t28 -88.5t13.5 -103h19q0 -7 0.5 -21
t1 -30.5t0.5 -33v-29.5zM280 116q-11 37 -14 76t-3 77q-29 0 -55.5 -2t-47 -11t-33 -27t-12.5 -50q0 -29 13.5 -50.5t36.5 -31t52.5 -6t62.5 24.5zM521 365q-1 14 -3.5 42t-9.5 55.5t-20.5 48.5t-36.5 21q-26 0 -40 -20.5t-21 -48.5t-8 -56.5t-1 -43.5q35 4 71 3t69 -1z" />
    <glyph glyph-name="ccedilla" unicode="&#xe7;" horiz-adv-x="522" 
d="M221 638q64 0 103.5 -22.5t61 -59t28.5 -82.5t7 -92h-108q-1 20 -3 43.5t-10 44t-25.5 34t-50.5 13.5q-28 0 -48.5 -17t-34 -44.5t-20.5 -62.5t-8.5 -71.5t1.5 -72t11 -62.5q4 -17 12 -35t19.5 -33t26.5 -25.5t33 -12.5q31 -3 47.5 12.5t23.5 39.5t7.5 51.5t0.5 48.5
q32 -3 59 -0.5t50 -2.5q5 -49 0.5 -92.5t-20.5 -77t-43 -56t-66 -30.5q-1 -8 -1.5 -17.5t1.5 -19.5q21 -5 41.5 -19t35 -35.5t21.5 -49.5t1 -61q-7 -36 -31 -60.5t-56.5 -36.5t-69 -11.5t-67.5 14.5q2 23 2.5 50.5t5.5 50.5q12 0 29 -2.5t33 -2t27.5 5t12.5 17.5
q1 18 -9.5 28t-26.5 15.5t-34.5 8.5t-34.5 7q0 17 1.5 31.5t3.5 28t3.5 28t0.5 31.5q-60 22 -95.5 71.5t-52.5 107.5q-12 42 -17 94.5t-0.5 106.5t19 104.5t41.5 90t67 64t95 24.5z" />
    <glyph glyph-name="egrave" unicode="&#xe8;" horiz-adv-x="476" 
d="M414 353q0 -8 0.5 -21t1 -29t0.5 -33.5v-33.5q-41 -2 -77.5 -2.5t-72.5 -0.5h-73h-77q1 -24 2.5 -47t8 -41.5t20.5 -30t40 -12.5q18 0 35.5 4.5t33.5 12t30 16t25 15.5q13 -23 28 -48.5t29 -46.5q-37 -35 -84 -54t-101 -17q-71 1 -108.5 30.5t-54 74.5t-18 100t-1.5 109
q0 56 6.5 116t28 110t61.5 82t107 32q66 0 104.5 -26.5t58 -67.5t24.5 -91.5t5 -99.5h18zM119 353q23 -1 41.5 -1h37t38 -0.5t45.5 -0.5q0 26 -1.5 57t-9 57.5t-23 44.5t-42.5 18q-30 0 -47 -19t-25.5 -46t-11 -57t-2.5 -53zM253 734q-20 -14 -41.5 -30t-53.5 -27
q-36 51 -72.5 100.5t-68.5 105.5q20 14 44 28.5t47 24.5q35 -50 72 -101.5t73 -100.5z" />
    <glyph glyph-name="eacute" unicode="&#xe9;" horiz-adv-x="476" 
d="M414 353q0 -8 0.5 -21t1 -29t0.5 -33.5v-33.5q-41 -2 -77.5 -2.5t-72.5 -0.5h-73h-77q1 -24 2.5 -47t8 -41.5t20.5 -30t40 -12.5q18 0 35.5 4.5t33.5 12t30 16t25 15.5q13 -23 28 -48.5t29 -46.5q-37 -35 -84 -54t-101 -17q-71 1 -108.5 30.5t-54 74.5t-18 100t-1.5 109
q0 56 6.5 116t28 110t61.5 82t107 32q66 0 104.5 -26.5t58 -67.5t24.5 -91.5t5 -99.5h18zM119 353q23 -1 41.5 -1h37t38 -0.5t45.5 -0.5q0 26 -1.5 57t-9 57.5t-23 44.5t-42.5 18q-30 0 -47 -19t-25.5 -46t-11 -57t-2.5 -53zM410 854q-36 -42 -77 -87.5t-73 -93.5
q-26 7 -47.5 16.5t-52.5 26.5q34 59 79.5 113t92.5 101q22 -16 40.5 -35t37.5 -41z" />
    <glyph glyph-name="ecircumflex" unicode="&#xea;" horiz-adv-x="476" 
d="M414 353q0 -8 0.5 -21t1 -29t0.5 -33.5v-33.5q-41 -2 -77.5 -2.5t-72.5 -0.5h-73h-77q1 -24 2.5 -47t8 -41.5t20.5 -30t40 -12.5q18 0 35.5 4.5t33.5 12t30 16t25 15.5q13 -23 28 -48.5t29 -46.5q-37 -35 -84 -54t-101 -17q-71 1 -108.5 30.5t-54 74.5t-18 100t-1.5 109
q0 56 6.5 116t28 110t61.5 82t107 32q66 0 104.5 -26.5t58 -67.5t24.5 -91.5t5 -99.5h18zM119 353q23 -1 41.5 -1h37t38 -0.5t45.5 -0.5q0 26 -1.5 57t-9 57.5t-23 44.5t-42.5 18q-30 0 -47 -19t-25.5 -46t-11 -57t-2.5 -53zM171 930q26 2 50 1t38 -3q26 -56 48 -115
t45 -119q-31 -8 -59.5 -13t-48.5 -8q-4 9 -8.5 22.5t-9 27.5t-8.5 27t-8 23q-13 -24 -28 -53.5t-29 -56.5q-23 4 -50 13t-50 23q13 27 27.5 57t29.5 60t30.5 59t30.5 55z" />
    <glyph glyph-name="edieresis" unicode="&#xeb;" horiz-adv-x="476" 
d="M414 353q0 -8 0.5 -21t1 -29t0.5 -33.5v-33.5q-41 -2 -77.5 -2.5t-72.5 -0.5h-73h-77q1 -24 2.5 -47t8 -41.5t20.5 -30t40 -12.5q18 0 35.5 4.5t33.5 12t30 16t25 15.5q13 -23 28 -48.5t29 -46.5q-37 -35 -84 -54t-101 -17q-71 1 -108.5 30.5t-54 74.5t-18 100t-1.5 109
q0 56 6.5 116t28 110t61.5 82t107 32q66 0 104.5 -26.5t58 -67.5t24.5 -91.5t5 -99.5h18zM119 353q23 -1 41.5 -1h37t38 -0.5t45.5 -0.5q0 26 -1.5 57t-9 57.5t-23 44.5t-42.5 18q-30 0 -47 -19t-25.5 -46t-11 -57t-2.5 -53zM330 848q24 -1 40.5 -17t23.5 -39t3 -47.5
t-21 -41.5q-9 -9 -24.5 -12.5t-32.5 -2t-32.5 7.5t-25.5 16q-16 16 -15 39.5t13 45.5t31 37t40 14zM100 850q26 -2 42 -16.5t22.5 -36t3.5 -47t-16 -49.5q-8 -15 -25.5 -19.5t-37 -1.5t-37 11.5t-25.5 18.5q-15 18 -15 42.5t11.5 47t31.5 37.5t45 13z" />
    <glyph glyph-name="igrave" unicode="&#xec;" horiz-adv-x="318" 
d="M233 625q5 -156 3.5 -317t-9.5 -309q-12 -1 -28.5 -1.5t-33 0t-31 2t-24.5 3.5q6 167 7.5 318.5t1.5 303.5q11 0 26 0.5t30.5 0.5h30.5t27 -1zM215 734q-20 -14 -41.5 -30t-53.5 -27q-36 51 -72.5 100.5t-68.5 105.5q20 14 44 28.5t47 24.5q35 -50 72 -101.5t73 -100.5z
" />
    <glyph glyph-name="iacute" unicode="&#xed;" horiz-adv-x="203" 
d="M121 625q5 -156 3.5 -317t-9.5 -309q-12 -1 -28.5 -1.5t-33 0t-31 2t-24.5 3.5q6 167 7.5 318.5t1.5 303.5q11 0 26 0.5t30.5 0.5h30.5t27 -1zM248 854q-36 -42 -77 -87.5t-73 -93.5q-26 7 -47.5 16.5t-52.5 26.5q34 59 79.5 113t92.5 101q22 -16 40.5 -35t37.5 -41z" />
    <glyph glyph-name="icircumflex" unicode="&#xee;" horiz-adv-x="289" 
d="M205 625q5 -156 3.5 -317t-9.5 -309q-12 -1 -28.5 -1.5t-33 0t-31 2t-24.5 3.5q6 167 7.5 318.5t1.5 303.5q11 0 26 0.5t30.5 0.5h30.5t27 -1zM120 930q26 2 50 1t38 -3q26 -56 48 -115t45 -119q-31 -8 -59.5 -13t-48.5 -8q-4 9 -8.5 22.5t-9 27.5t-8.5 27t-8 23
q-13 -24 -28 -53.5t-29 -56.5q-23 4 -50 13t-50 23q13 27 27.5 57t29.5 60t30.5 59t30.5 55z" />
    <glyph glyph-name="idieresis" unicode="&#xef;" horiz-adv-x="426" 
d="M246 625q5 -156 3.5 -317t-9.5 -309q-12 -1 -28.5 -1.5t-33 0t-31 2t-24.5 3.5q6 167 7.5 318.5t1.5 303.5q11 0 26 0.5t30.5 0.5h30.5t27 -1zM316 848q24 -1 40.5 -17t23.5 -39t3 -47.5t-21 -41.5q-9 -9 -24.5 -12.5t-32.5 -2t-32.5 7.5t-25.5 16q-16 16 -15 39.5
t13 45.5t31 37t40 14zM86 850q26 -2 42 -16.5t22.5 -36t3.5 -47t-16 -49.5q-8 -15 -25.5 -19.5t-37 -1.5t-37 11.5t-25.5 18.5q-15 18 -15 42.5t11.5 47t31.5 37.5t45 13z" />
    <glyph glyph-name="eth" unicode="&#xf0;" horiz-adv-x="471" 
d="M240 811q25 7 44 14t39 14q12 -22 21 -47t17 -46q-12 -9 -33 -18t-38 -19q13 -37 29 -76t29 -82q17 -54 29.5 -115.5t18.5 -122.5q7 -68 3.5 -128t-23.5 -117q-8 -23 -29.5 -41t-50 -29t-61.5 -15.5t-65 -0.5t-59.5 16.5t-45.5 34.5q-24 30 -39.5 74.5t-22.5 96t-6 106
t10.5 104.5t27.5 91t45 66q15 14 28.5 23t27.5 14t30.5 6.5t36.5 0.5q-2 11 -7 28t-13 26q-24 -4 -45.5 -12t-45.5 -14q-10 20 -19 40.5t-20 52.5q6 3 16.5 7.5t22.5 9.5l24 10t21 9q-6 14 -9.5 24t-10.5 27q22 9 47 18.5t48 16.5q11 -17 15.5 -26t12.5 -21zM161 491
q-29 -28 -43 -76.5t-15 -103t10 -108t31 -90.5q10 -18 27 -23t36 -1.5t35.5 12.5t25.5 19q10 12 14.5 35t6 49t0.5 49.5t-2 36.5q-5 57 -18.5 114.5t-27.5 103.5q-27 5 -44.5 2.5t-35.5 -19.5z" />
    <glyph glyph-name="ntilde" unicode="&#xf1;" horiz-adv-x="460" 
d="M137 633q6 -7 5 -18t4 -23q11 6 27.5 11.5t35.5 8t38.5 2t37.5 -6.5q19 -6 34 -18t26 -28t17.5 -33.5t9.5 -34.5q7 -54 8.5 -112t0 -116t-4.5 -115t-5 -110q-20 -2 -51 -2t-57 5q-1 33 1 71.5t4 79t3.5 80.5t0.5 76q-1 20 -1 42.5t-3 42.5t-10 36t-21 24q-15 9 -29 7
t-26 -9.5t-22 -18t-16 -19.5q-2 -56 -3.5 -111t-3 -111t-3 -114.5t-3.5 -121.5q-23 0 -53.5 -1t-53.5 3q3 95 4 194t5 202q1 28 0.5 59t-0.5 61.5t0.5 60t3.5 54.5q21 5 48 3t52 0zM349 820q15 -20 27.5 -38.5t29.5 -42.5q-14 -14 -30.5 -28t-36 -25t-42 -17.5t-47.5 -6.5
q-18 0 -32.5 6t-27.5 14.5t-25 17t-24 14.5q-24 10 -42.5 2.5t-34.5 -16.5q-25 27 -37.5 45.5t-26.5 37.5q12 10 26.5 21t31.5 19.5t36.5 13t41.5 1.5q34 -4 55.5 -19.5t44.5 -32.5q14 -10 29.5 -7.5t30.5 10t28.5 17t24.5 14.5z" />
    <glyph glyph-name="ograve" unicode="&#xf2;" horiz-adv-x="499" 
d="M359 503q10 3 22 11.5t27 18.5q25 -44 54 -96q-26 -24 -48.5 -39t-38.5 -21q3 -73 0 -130t-14 -110q-7 -31 -19 -58.5t-31.5 -48.5t-47.5 -33t-66 -12q-60 0 -98 24.5t-59.5 66.5t-29.5 97t-9 115q-1 41 5.5 86t18.5 89q11 39 27.5 72.5t40.5 58t55 36.5t72 8
q55 -6 90 -41t49 -94zM154 490q7 -6 19 -10t25.5 -6t27.5 -3t26 -1q-4 28 -18 42t-30 17q-13 2 -28 -10t-22 -29zM120 373q-4 -20 -6.5 -43t-2.5 -46q0 -35 4.5 -68.5t14.5 -59.5t26.5 -41.5t39.5 -15.5t36.5 21.5t19.5 48.5q11 45 12 92t-2 89q-34 -2 -73.5 4.5t-68.5 18.5
zM246 734q-20 -14 -41.5 -30t-53.5 -27q-36 51 -72.5 100.5t-68.5 105.5q20 14 44 28.5t47 24.5q35 -50 72 -101.5t73 -100.5z" />
    <glyph glyph-name="oacute" unicode="&#xf3;" horiz-adv-x="499" 
d="M359 503q10 3 22 11.5t27 18.5q25 -44 54 -96q-26 -24 -48.5 -39t-38.5 -21q3 -73 0 -130t-14 -110q-7 -31 -19 -58.5t-31.5 -48.5t-47.5 -33t-66 -12q-60 0 -98 24.5t-59.5 66.5t-29.5 97t-9 115q-1 41 5.5 86t18.5 89q11 39 27.5 72.5t40.5 58t55 36.5t72 8
q55 -6 90 -41t49 -94zM154 490q7 -6 19 -10t25.5 -6t27.5 -3t26 -1q-4 28 -18 42t-30 17q-13 2 -28 -10t-22 -29zM120 373q-4 -20 -6.5 -43t-2.5 -46q0 -35 4.5 -68.5t14.5 -59.5t26.5 -41.5t39.5 -15.5t36.5 21.5t19.5 48.5q11 45 12 92t-2 89q-34 -2 -73.5 4.5t-68.5 18.5
zM409 854q-36 -42 -77 -87.5t-73 -93.5q-26 7 -47.5 16.5t-52.5 26.5q34 59 79.5 113t92.5 101q22 -16 40.5 -35t37.5 -41z" />
    <glyph glyph-name="ocircumflex" unicode="&#xf4;" horiz-adv-x="499" 
d="M359 503q10 3 22 11.5t27 18.5q25 -44 54 -96q-26 -24 -48.5 -39t-38.5 -21q3 -73 0 -130t-14 -110q-7 -31 -19 -58.5t-31.5 -48.5t-47.5 -33t-66 -12q-60 0 -98 24.5t-59.5 66.5t-29.5 97t-9 115q-1 41 5.5 86t18.5 89q11 39 27.5 72.5t40.5 58t55 36.5t72 8
q55 -6 90 -41t49 -94zM154 490q7 -6 19 -10t25.5 -6t27.5 -3t26 -1q-4 28 -18 42t-30 17q-13 2 -28 -10t-22 -29zM120 373q-4 -20 -6.5 -43t-2.5 -46q0 -35 4.5 -68.5t14.5 -59.5t26.5 -41.5t39.5 -15.5t36.5 21.5t19.5 48.5q11 45 12 92t-2 89q-34 -2 -73.5 4.5t-68.5 18.5
zM162 930q26 2 50 1t38 -3q26 -56 48 -115t45 -119q-31 -8 -59.5 -13t-48.5 -8q-4 9 -8.5 22.5t-9 27.5t-8.5 27t-8 23q-13 -24 -28 -53.5t-29 -56.5q-23 4 -50 13t-50 23q13 27 27.5 57t29.5 60t30.5 59t30.5 55z" />
    <glyph glyph-name="otilde" unicode="&#xf5;" horiz-adv-x="499" 
d="M359 503q10 3 22 11.5t27 18.5q25 -44 54 -96q-26 -24 -48.5 -39t-38.5 -21q3 -73 0 -130t-14 -110q-7 -31 -19 -58.5t-31.5 -48.5t-47.5 -33t-66 -12q-60 0 -98 24.5t-59.5 66.5t-29.5 97t-9 115q-1 41 5.5 86t18.5 89q11 39 27.5 72.5t40.5 58t55 36.5t72 8
q55 -6 90 -41t49 -94zM154 490q7 -6 19 -10t25.5 -6t27.5 -3t26 -1q-4 28 -18 42t-30 17q-13 2 -28 -10t-22 -29zM120 373q-4 -20 -6.5 -43t-2.5 -46q0 -35 4.5 -68.5t14.5 -59.5t26.5 -41.5t39.5 -15.5t36.5 21.5t19.5 48.5q11 45 12 92t-2 89q-34 -2 -73.5 4.5t-68.5 18.5
zM358 850q15 -20 27.5 -38.5t29.5 -42.5q-14 -14 -30.5 -28t-36 -25t-42 -17.5t-47.5 -6.5q-18 0 -32.5 6t-27.5 14.5t-25 17t-24 14.5q-24 10 -42.5 2.5t-34.5 -16.5q-25 27 -37.5 45.5t-26.5 37.5q12 10 26.5 21t31.5 19.5t36.5 13t41.5 1.5q34 -4 55.5 -19.5t44.5 -32.5
q14 -10 29.5 -7.5t30.5 10t28.5 17t24.5 14.5z" />
    <glyph glyph-name="odieresis" unicode="&#xf6;" horiz-adv-x="499" 
d="M359 503q10 3 22 11.5t27 18.5q25 -44 54 -96q-26 -24 -48.5 -39t-38.5 -21q3 -73 0 -130t-14 -110q-7 -31 -19 -58.5t-31.5 -48.5t-47.5 -33t-66 -12q-60 0 -98 24.5t-59.5 66.5t-29.5 97t-9 115q-1 41 5.5 86t18.5 89q11 39 27.5 72.5t40.5 58t55 36.5t72 8
q55 -6 90 -41t49 -94zM154 490q7 -6 19 -10t25.5 -6t27.5 -3t26 -1q-4 28 -18 42t-30 17q-13 2 -28 -10t-22 -29zM120 373q-4 -20 -6.5 -43t-2.5 -46q0 -35 4.5 -68.5t14.5 -59.5t26.5 -41.5t39.5 -15.5t36.5 21.5t19.5 48.5q11 45 12 92t-2 89q-34 -2 -73.5 4.5t-68.5 18.5
zM315 848q24 -1 40.5 -17t23.5 -39t3 -47.5t-21 -41.5q-9 -9 -24.5 -12.5t-32.5 -2t-32.5 7.5t-25.5 16q-16 16 -15 39.5t13 45.5t31 37t40 14zM85 850q26 -2 42 -16.5t22.5 -36t3.5 -47t-16 -49.5q-8 -15 -25.5 -19.5t-37 -1.5t-37 11.5t-25.5 18.5q-15 18 -15 42.5
t11.5 47t31.5 37.5t45 13z" />
    <glyph glyph-name="divide" unicode="&#xf7;" horiz-adv-x="663" 
d="M268 581q27 2 46.5 -5.5t27.5 -23.5q12 -22 11 -47t-12.5 -44.5t-32 -29.5t-47.5 -2q-15 4 -29.5 12.5t-25 21.5t-14.5 29.5t1 37.5q6 23 24 36t51 15zM581 395q2 -27 1 -56t0 -52q-87 -1 -186 -6.5t-196 -4.5q-52 1 -101.5 2.5t-96.5 4.5q-2 28 -1 56.5t3 55.5
q51 -3 95.5 -4t95.5 -1q94 0 193.5 5t192.5 0zM317 209q18 -4 25.5 -23t7 -42.5t-9 -44t-22.5 -27.5q-22 -10 -43.5 -7t-38 15t-26.5 30.5t-8 39.5q2 22 13 36t27 20.5t35.5 6.5t39.5 -4z" />
    <glyph glyph-name="oslash" unicode="&#xf8;" horiz-adv-x="604" 
d="M448 474q23 -64 31.5 -137.5t-1 -140.5t-37.5 -119t-79 -72q-41 -16 -94.5 -14t-99.5 24q-17 -26 -34 -53l-34 -54q-23 11 -51.5 27.5t-48.5 30.5l83 138q-17 29 -27.5 64t-15.5 72t-5 74.5t4 72.5q4 37 13.5 72t25 65t37 53t48.5 36q24 11 52.5 15.5t57 1.5t55.5 -13.5
t48 -29.5l60 97q26 -16 51 -33t46 -32zM151 381q-2 -18 -3 -38t-1 -40.5t2 -40t8 -36.5q39 66 78 129.5t78 127.5q-17 26 -43 34.5t-52 -6.5q-15 -9 -27 -24t-20.5 -33t-13.5 -37t-6 -36zM315 119q21 17 33 43.5t17.5 56.5t5 60t-5.5 56l-130 -213h1q7 -5 18 -8t23 -3.5
t22 1.5t16 7z" />
    <glyph glyph-name="ugrave" unicode="&#xf9;" horiz-adv-x="452" 
d="M365 636q8 -62 13.5 -123.5t6.5 -122t-5 -119t-21 -114.5q-9 -35 -24 -65.5t-37.5 -54t-53.5 -37t-72 -13.5t-70 14t-47.5 38t-29.5 55.5t-16 66.5q-8 51 -10 105.5t0.5 109t8 108.5t14.5 103q23 -2 51 -7t52 -10q-11 -97 -17.5 -191.5t7.5 -187.5q7 -40 20 -64.5
t37 -24.5q35 0 54 28t29 66q11 46 15.5 102t3.5 114t-5 113.5t-10 99.5q25 3 54.5 6.5t51.5 4.5zM254 734q-20 -14 -41.5 -30t-53.5 -27q-36 51 -72.5 100.5t-68.5 105.5q20 14 44 28.5t47 24.5q35 -50 72 -101.5t73 -100.5z" />
    <glyph glyph-name="uacute" unicode="&#xfa;" horiz-adv-x="452" 
d="M365 636q8 -62 13.5 -123.5t6.5 -122t-5 -119t-21 -114.5q-9 -35 -24 -65.5t-37.5 -54t-53.5 -37t-72 -13.5t-70 14t-47.5 38t-29.5 55.5t-16 66.5q-8 51 -10 105.5t0.5 109t8 108.5t14.5 103q23 -2 51 -7t52 -10q-11 -97 -17.5 -191.5t7.5 -187.5q7 -40 20 -64.5
t37 -24.5q35 0 54 28t29 66q11 46 15.5 102t3.5 114t-5 113.5t-10 99.5q25 3 54.5 6.5t51.5 4.5zM368 854q-36 -42 -77 -87.5t-73 -93.5q-26 7 -47.5 16.5t-52.5 26.5q34 59 79.5 113t92.5 101q22 -16 40.5 -35t37.5 -41z" />
    <glyph glyph-name="ucircumflex" unicode="&#xfb;" horiz-adv-x="452" 
d="M365 636q8 -62 13.5 -123.5t6.5 -122t-5 -119t-21 -114.5q-9 -35 -24 -65.5t-37.5 -54t-53.5 -37t-72 -13.5t-70 14t-47.5 38t-29.5 55.5t-16 66.5q-8 51 -10 105.5t0.5 109t8 108.5t14.5 103q23 -2 51 -7t52 -10q-11 -97 -17.5 -191.5t7.5 -187.5q7 -40 20 -64.5
t37 -24.5q35 0 54 28t29 66q11 46 15.5 102t3.5 114t-5 113.5t-10 99.5q25 3 54.5 6.5t51.5 4.5zM154 930q26 2 50 1t38 -3q26 -56 48 -115t45 -119q-31 -8 -59.5 -13t-48.5 -8q-4 9 -8.5 22.5t-9 27.5t-8.5 27t-8 23q-13 -24 -28 -53.5t-29 -56.5q-23 4 -50 13t-50 23
q13 27 27.5 57t29.5 60t30.5 59t30.5 55z" />
    <glyph glyph-name="udieresis" unicode="&#xfc;" horiz-adv-x="452" 
d="M365 636q8 -62 13.5 -123.5t6.5 -122t-5 -119t-21 -114.5q-9 -35 -24 -65.5t-37.5 -54t-53.5 -37t-72 -13.5t-70 14t-47.5 38t-29.5 55.5t-16 66.5q-8 51 -10 105.5t0.5 109t8 108.5t14.5 103q23 -2 51 -7t52 -10q-11 -97 -17.5 -191.5t7.5 -187.5q7 -40 20 -64.5
t37 -24.5q35 0 54 28t29 66q11 46 15.5 102t3.5 114t-5 113.5t-10 99.5q25 3 54.5 6.5t51.5 4.5zM310 848q24 -1 40.5 -17t23.5 -39t3 -47.5t-21 -41.5q-9 -9 -24.5 -12.5t-32.5 -2t-32.5 7.5t-25.5 16q-16 16 -15 39.5t13 45.5t31 37t40 14zM80 850q26 -2 42 -16.5
t22.5 -36t3.5 -47t-16 -49.5q-8 -15 -25.5 -19.5t-37 -1.5t-37 11.5t-25.5 18.5q-15 18 -15 42.5t11.5 47t31.5 37.5t45 13z" />
    <glyph glyph-name="yacute" unicode="&#xfd;" horiz-adv-x="500" 
d="M479 604q-17 -48 -38 -112t-46.5 -132.5t-54.5 -136t-61 -124.5q-40 -69 -89 -145t-97 -140q-23 14 -50 32t-44 34q28 41 60.5 88.5t56.5 92.5q-24 87 -40.5 158t-29.5 129.5t-24 107t-22 90.5q18 6 44 13t65 16q13 -39 24 -87.5t22 -99t22 -99.5t23 -89q27 47 50 101.5
t44 112t40 115.5t39 112q23 -8 53 -18.5t53 -18.5zM412 854q-36 -42 -77 -87.5t-73 -93.5q-26 7 -47.5 16.5t-52.5 26.5q34 59 79.5 113t92.5 101q22 -16 40.5 -35t37.5 -41z" />
    <glyph glyph-name="thorn" unicode="&#xfe;" horiz-adv-x="420" 
d="M134 804q1 -43 -2 -95.5t-2 -100.5q54 9 96.5 -10t71.5 -54.5t45 -82.5t18 -94q2 -70 -6 -132.5t-32 -110.5q-27 -54 -77.5 -84.5t-131.5 -35.5q0 -49 3 -93t5 -78q-29 -5 -59 -6.5t-52 -2.5q-4 42 -5.5 84.5t-3.5 86.5q-4 141 1 285t13 290q3 60 5 119t5 118h17t29.5 -1
t33 -1.5t28.5 -0.5zM251 362q0 22 -10 51t-27.5 51.5t-40.5 31.5t-49 -7q-5 -93 -9.5 -185.5t-2.5 -190.5q45 8 72 24t42 39q11 18 16.5 39t7.5 44.5t1.5 49.5t-0.5 53z" />
    <glyph glyph-name="ydieresis" unicode="&#xff;" horiz-adv-x="500" 
d="M479 604q-17 -48 -38 -112t-46.5 -132.5t-54.5 -136t-61 -124.5q-40 -69 -89 -145t-97 -140q-23 14 -50 32t-44 34q28 41 60.5 88.5t56.5 92.5q-24 87 -40.5 158t-29.5 129.5t-24 107t-22 90.5q18 6 44 13t65 16q13 -39 24 -87.5t22 -99t22 -99.5t23 -89q27 47 50 101.5
t44 112t40 115.5t39 112q23 -8 53 -18.5t53 -18.5zM354 848q24 -1 40.5 -17t23.5 -39t3 -47.5t-21 -41.5q-9 -9 -24.5 -12.5t-32.5 -2t-32.5 7.5t-25.5 16q-16 16 -15 39.5t13 45.5t31 37t40 14zM124 850q26 -2 42 -16.5t22.5 -36t3.5 -47t-16 -49.5q-8 -15 -25.5 -19.5
t-37 -1.5t-37 11.5t-25.5 18.5q-15 18 -15 42.5t11.5 47t31.5 37.5t45 13z" />
    <glyph glyph-name="dotlessi" unicode="&#x131;" horiz-adv-x="208" 
d="M123 625q5 -156 3.5 -317t-9.5 -309q-12 -1 -28.5 -1.5t-33 0t-31 2t-24.5 3.5q6 167 7.5 318.5t1.5 303.5q11 0 26 0.5t30.5 0.5h30.5t27 -1z" />
    <glyph glyph-name="OE" unicode="&#x152;" horiz-adv-x="684" 
d="M369 740q5 -2 4.5 -10t3.5 -12q23 -3 49.5 -2.5t54 1t55.5 0.5t54 -4v-53.5t-2 -54.5q-11 1 -33.5 1.5t-52 0.5t-63 -1.5t-67.5 -2.5q-3 -17 -4 -43t-1 -54t-0.5 -55.5t-1.5 -47.5l37.5 -2.5t46.5 -2.5t48.5 -1.5t44.5 -0.5q2 -30 1.5 -58t-2.5 -52q-21 -2 -45.5 -2.5
t-48.5 -0.5t-45.5 0.5t-37.5 2.5q-5 -26 -7.5 -52.5t-3.5 -50t-1 -42v-28.5q14 -2 36 -2.5t45.5 -0.5t45 1t34.5 2q1 -32 -1 -59t-2 -44q-12 -6 -32.5 -7t-43.5 -1h-44.5t-35.5 -2q-8 -2 -6.5 -8t-3.5 -10q-17 -3 -42.5 -4.5t-63.5 3.5q-1 10 -0.5 10.5t-1.5 6.5
q-17 -1 -31.5 -0.5t-28.5 2.5q-46 7 -77.5 33t-51.5 64.5t-30.5 85t-14.5 94t-2.5 92t5.5 78.5q5 47 17.5 94.5t34.5 88t55.5 70t81.5 40.5t94 12t81 -12zM256 628q-8 0 -22 -2t-22 -7q-48 -26 -72 -82.5t-27 -125.5q-1 -32 -1 -79t7 -93.5t24 -83.5t50 -48q12 -5 22.5 -4.5
t23.5 2.5q-2 27 -1.5 62.5t1.5 61.5q1 36 4 63.5t6 58t5 68.5t2 95q0 26 0.5 58t-0.5 56z" />
    <glyph glyph-name="oe" unicode="&#x153;" horiz-adv-x="780" 
d="M376 592q28 25 75.5 36.5t98.5 -2.5q71 -20 105 -88t23 -167q0 -8 8.5 -7.5t10.5 -5.5q-1 -23 1 -48.5t0 -48.5q-70 -11 -146.5 -12.5t-153.5 -5.5q-1 -12 0 -31t3.5 -38.5t7 -36.5t11.5 -26q15 -18 43.5 -18t60.5 8t62 19t48 15q9 -22 19.5 -46t18.5 -53
q-27 -21 -72.5 -37t-96.5 -21t-99.5 3.5t-81.5 35.5q-6 -6 -22 -12.5t-35.5 -10.5t-40.5 -5t-38 3q-76 18 -122 72t-59 127q-10 57 -9 126t19 133.5t56 115t101 70.5q25 8 52 8.5t54 -5.5t52 -18t46 -29zM231 531q-44 -4 -72 -36.5t-41.5 -80.5t-12.5 -104t15 -106
q7 -26 25 -49t42 -36.5t52 -13.5t55 21q-10 29 -12 59t-2 56q-9 1 -13 -0.5t-10 3.5q-2 21 -5 48.5t-5 55.5q14 3 20.5 3t14.5 1q5 38 14.5 72.5t20.5 66.5q-13 19 -36 30.5t-50 9.5zM515 523q-28 5 -49 -13.5t-35 -46t-22 -57.5t-10 -48q37 -6 83 -3t87 8q2 26 -0.5 53.5
t-10 50t-18.5 38t-25 18.5z" />
    <glyph glyph-name="Scaron" unicode="&#x160;" horiz-adv-x="478" 
d="M309 482q-3 21 -8 46t-14 47t-25 36.5t-42 14.5q-21 0 -34 -8.5t-20 -22.5t-9.5 -31.5t-2.5 -35.5q0 -42 17 -69.5t43 -47.5t57.5 -38.5t60.5 -42.5q62 -52 74 -119t-25 -130q-28 -48 -74 -72.5t-108 -24.5q-56 0 -93.5 17t-60.5 47.5t-33.5 71.5t-11.5 89q10 1 24.5 3
t29 3t28.5 1.5t25 -1.5q1 -25 6.5 -46.5t16 -37t27.5 -24t43 -8.5q21 0 43.5 11.5t33.5 28.5q15 24 10 49.5t-29 44.5q-49 38 -91 63t-72.5 53.5t-47.5 69.5t-17 111q0 49 13.5 89.5t39 68.5t61 43.5t80.5 15.5q56 0 93 -23t60 -59t33 -81.5t12 -90.5q-29 -7 -60 -9.5
t-53 -1.5zM330 1084q23 -11 42 -22.5t45 -30.5q-29 -64 -70 -121.5t-81 -111.5q-23 -1 -44.5 -2.5t-42.5 -0.5q-18 32 -38.5 63.5t-37.5 63.5t-34.5 59.5t-34.5 63.5q23 11 47.5 21.5t57.5 17.5q10 -19 22 -40.5t24 -41.5t23 -38.5t17 -31.5q13 14 27.5 34.5t28.5 42
t26.5 41.5t22.5 34z" />
    <glyph glyph-name="scaron" unicode="&#x161;" horiz-adv-x="455" 
d="M319 954q23 -11 42 -22.5t45 -30.5q-29 -64 -64.5 -114.5t-75.5 -103.5h-26.5t-29.5 0.5t-29.5 1t-24.5 0.5q-18 31 -32.5 53t-31.5 54t-34.5 59.5t-34.5 63.5q23 11 47.5 21.5t57.5 17.5q10 -19 22 -40.5t24 -41.5t23 -38.5t17 -31.5q13 14 27.5 34.5t28.5 42t26.5 41.5
t22.5 34zM403 377q-25 -4 -51 -6t-55 -4q-5 25 -9.5 52.5t-14.5 50.5t-27.5 37.5t-47.5 14.5q-37 0 -59 -22.5t-22 -53.5q0 -20 7 -36t19 -28.5t27.5 -22.5t32.5 -19q34 -18 65 -33.5t54 -36t37 -48.5t14 -70q0 -87 -49.5 -127t-137.5 -40q-51 0 -86.5 16t-57.5 46
t-31.5 71.5t-7.5 92.5q24 2 52.5 1t57.5 -3q0 -18 2 -36.5t9 -34t21.5 -26.5t40.5 -13q12 -1 25 1.5t23.5 8.5t17.5 15t7 23q0 12 -9 23.5t-24 22.5t-34 21.5t-40 21.5q-34 18 -62 36.5t-48 42t-31 55.5t-11 79q0 41 13 76t38.5 60.5t63 39.5t85.5 14q56 0 94 -22.5t62 -59
t34.5 -84t12.5 -96.5z" />
    <glyph glyph-name="Ydieresis" unicode="&#x178;" horiz-adv-x="605" 
d="M272 0q-58 -1 -115 0q2 39 3.5 84t2 92.5t-0.5 95t-4 89.5q-46 92 -84 172t-74 143q23 14 49 25.5t54 23.5q36 -60 69.5 -129t65.5 -133q26 34 57.5 74.5t62 80t57.5 74t44 56.5q18 -11 43.5 -31t46.5 -37q-18 -24 -48.5 -64.5t-67.5 -89t-77 -103t-79 -106.5
q1 -78 -1 -158.5t-4 -158.5zM385 958q24 -1 40.5 -17t23.5 -39t3 -47.5t-21 -41.5q-9 -9 -24.5 -12.5t-32.5 -2t-32.5 7.5t-25.5 16q-16 16 -15 39.5t13 45.5t31 37t40 14zM155 960q26 -2 42 -16.5t22.5 -36t3.5 -47t-16 -49.5q-8 -15 -25.5 -19.5t-37 -1.5t-37 11.5
t-25.5 18.5q-15 18 -15 42.5t11.5 47t31.5 37.5t45 13z" />
    <glyph glyph-name="Zcaron" unicode="&#x17d;" horiz-adv-x="505" 
d="M456 720q-4 -27 -9.5 -58.5t-10.5 -54.5q-5 0 -12 0.5t-12 1.5q-28 -60 -50.5 -123.5t-45 -126.5t-47.5 -124t-57 -118q19 1 47 1.5t58 0t58.5 -3t50.5 -8.5q-2 -25 -7 -58t-9 -56q-24 4 -64.5 5.5t-88 1.5t-95.5 -1.5t-87 -3.5q-3 18 -6 49t-5 56q67 121 117.5 249.5
t96.5 270.5q-35 5 -67.5 10t-66 9.5t-69 9t-75.5 10.5q5 35 10.5 60.5t10.5 53.5q41 -5 79.5 -10t86.5 -11t112.5 -14t156.5 -18zM373 1084q23 -11 42 -22.5t45 -30.5q-29 -64 -70 -121.5t-81 -111.5q-23 -1 -44.5 -2.5t-42.5 -0.5q-18 32 -38.5 63.5t-37.5 63.5t-34.5 59.5
t-34.5 63.5q23 11 47.5 21.5t57.5 17.5q10 -19 22 -40.5t24 -41.5t23 -38.5t17 -31.5q13 14 27.5 34.5t28.5 42t26.5 41.5t22.5 34z" />
    <glyph glyph-name="zcaron" unicode="&#x17e;" horiz-adv-x="500" 
d="M436 595q2 -6 2.5 -10t1.5 -10q-24 -53 -45.5 -114t-43.5 -123.5t-46.5 -122.5t-52.5 -111q33 1 68.5 2.5t67.5 -1.5q0 -26 1 -52.5t0 -52.5q-37 0 -78 -1.5t-80.5 -3t-74 -3t-58.5 -2.5q-3 25 -5 52.5t-4 52.5q6 2 12.5 2t13.5 2q26 40 49.5 89.5t44.5 103t40 107.5
t36 102q-32 3 -60.5 7.5t-60.5 9.5t-71.5 11.5t-92.5 13.5q4 34 7.5 61t6.5 49q100 -11 208.5 -29t213.5 -29zM351 954q23 -11 42 -22.5t45 -30.5q-29 -64 -70 -121.5t-81 -111.5q-23 -1 -44.5 -2.5t-42.5 -0.5q-18 32 -38.5 63.5t-37.5 63.5t-34.5 59.5t-34.5 63.5
q23 11 47.5 21.5t57.5 17.5q10 -19 22 -40.5t24 -41.5t23 -38.5t17 -31.5q13 14 27.5 34.5t28.5 42t26.5 41.5t22.5 34z" />
    <glyph glyph-name="florin" unicode="&#x192;" horiz-adv-x="506" 
d="M443 687q-17 -23 -31 -42.5t-31 -38.5q-7 6 -16 14.5t-20.5 15t-24 9t-27.5 -3.5q-21 -8 -33.5 -28t-19.5 -45.5t-10 -55t-4 -57.5q28 0 55.5 0.5t50.5 -1.5q2 -26 1 -53t-2 -53q-22 -5 -51.5 -5t-54.5 -2q-3 -54 -2.5 -113.5t1 -121.5t-2.5 -124.5t-14 -121.5
q-11 -69 -44 -121.5t-76 -90.5q-21 14 -45 34t-39 33q9 13 23.5 30t29.5 38.5t27 47.5t16 56q7 56 9 113.5t1.5 115t-1 113.5t1.5 109q-21 0 -44.5 1t-46.5 3q-1 3 -1.5 16t-0.5 30t0.5 34t1.5 29q20 2 43 1.5t51 -0.5q3 48 9.5 93.5t20.5 83.5t36 68t55 48q30 16 61 16
t59.5 -10.5t51.5 -28t37 -35.5z" />
    <glyph glyph-name="circumflex" unicode="&#x2c6;" horiz-adv-x="380" 
d="M121 860q26 2 50 1t38 -3q26 -56 48 -115t45 -119q-31 -8 -59.5 -13t-48.5 -8q-4 9 -8.5 22.5t-9 27.5t-8.5 27t-8 23q-13 -24 -28 -53.5t-29 -56.5q-23 4 -50 13t-50 23q13 27 27.5 57t29.5 60t30.5 59t30.5 55z" />
    <glyph glyph-name="tilde" unicode="&#x2dc;" horiz-adv-x="454" 
d="M349 875q15 -20 27.5 -38.5t29.5 -42.5q-14 -14 -30.5 -28t-36 -25t-42 -17.5t-47.5 -6.5q-18 0 -32.5 6t-27.5 14.5t-25 17t-24 14.5q-24 10 -42.5 2.5t-34.5 -16.5q-25 27 -37.5 45.5t-26.5 37.5q12 10 26.5 21t31.5 19.5t36.5 13t41.5 1.5q34 -4 55.5 -19.5
t44.5 -32.5q14 -10 29.5 -7.5t30.5 10t28.5 17t24.5 14.5z" />
    <glyph glyph-name="endash" unicode="&#x2013;" horiz-adv-x="714" 
d="M617 396q4 0 4.5 -1.5t1 -3.5t2 -3.5t7.5 -1.5q0 -27 -1 -55t-3 -48q-76 3 -152.5 1t-153.5 -4.5t-155 -3.5t-157 4q-2 33 -1.5 55.5t2.5 52.5q77 -2 153 -1t152 3t151 4t150 2z" />
    <glyph glyph-name="emdash" unicode="&#x2014;" horiz-adv-x="833" 
d="M762 391q2 -32 2 -58.5t-5 -49.5q-87 3 -155 2.5t-131.5 -2.5t-130 -4t-151.5 -1q-21 0 -45 0.5t-47 1t-44.5 1.5t-39.5 4q-2 8 -3 21.5t-1.5 29t-1 30.5t-1.5 25q7 1 28 0.5t48.5 -1t56.5 -1t52 -0.5q84 0 150.5 2.5t130 4.5t131.5 1.5t157 -6.5z" />
    <glyph glyph-name="quoteleft" unicode="&#x2018;" horiz-adv-x="264" 
d="M131 746q25 -7 37.5 -30t11 -49t-18.5 -47.5t-52 -24.5q-32 -3 -56.5 10.5t-37.5 37.5q-19 37 -14.5 73.5t21.5 69t43 58.5t51 41q11 -6 19.5 -11t17.5 -12t20.5 -17t28.5 -26q-9 -10 -18.5 -18t-19 -16.5t-18.5 -17.5t-15 -21z" />
    <glyph glyph-name="quoteright" unicode="&#x2019;" horiz-adv-x="266" 
d="M71 718q-25 7 -37.5 30t-11 49t18.5 47.5t52 24.5q32 3 56.5 -10.5t37.5 -37.5q19 -37 14.5 -73.5t-21.5 -69t-43 -58.5t-51 -41q-11 6 -19.5 11t-17.5 12t-20.5 16.5t-28.5 26.5q17 19 37.5 34.5t33.5 38.5z" />
    <glyph glyph-name="quotesinglbase" unicode="&#x201a;" horiz-adv-x="276" 
d="M71 -9q-25 7 -37.5 30t-11 49t18.5 47.5t52 24.5q32 3 56.5 -10.5t37.5 -37.5q19 -37 14.5 -73.5t-21.5 -69t-43 -58.5t-51 -41q-11 6 -19.5 11t-17.5 12t-20.5 16.5t-28.5 26.5q17 19 37.5 34.5t33.5 38.5z" />
    <glyph glyph-name="quotedblleft" unicode="&#x201c;" horiz-adv-x="454" 
d="M341 746q25 -7 37.5 -30t11 -49t-18.5 -47.5t-52 -24.5q-32 -3 -56.5 10.5t-37.5 37.5q-19 37 -14.5 73.5t21.5 69t43 58.5t51 41q11 -6 19.5 -11t17.5 -12t20.5 -17t28.5 -26q-9 -10 -18.5 -18t-19 -16.5t-18.5 -17.5t-15 -21zM131 746q25 -7 37.5 -30t11 -49
t-18.5 -47.5t-52 -24.5q-32 -3 -56.5 10.5t-37.5 37.5q-19 37 -14.5 73.5t21.5 69t43 58.5t51 41q11 -6 19.5 -11t17.5 -12t20.5 -17t28.5 -26q-9 -10 -18.5 -18t-19 -16.5t-18.5 -17.5t-15 -21z" />
    <glyph glyph-name="quotedblright" unicode="&#x201d;" horiz-adv-x="469" 
d="M70 718q-25 7 -37.5 30t-11 49t18.5 47.5t52 24.5q32 3 56.5 -10.5t37.5 -37.5q19 -37 14.5 -73.5t-21.5 -69t-43 -58.5t-51 -41q-11 6 -19.5 11t-17.5 12t-20.5 16.5t-28.5 26.5q17 19 37.5 34.5t33.5 38.5zM283 718q-25 7 -37.5 30t-11 49t18.5 47.5t52 24.5
q32 3 56.5 -10.5t37.5 -37.5q19 -37 14.5 -73.5t-21.5 -69t-43 -58.5t-51 -41q-11 6 -19.5 11t-17.5 12t-20.5 16.5t-28.5 26.5q17 19 37.5 34.5t33.5 38.5z" />
    <glyph glyph-name="quotedblbase" unicode="&#x201e;" horiz-adv-x="454" 
d="M71 -9q-25 7 -37.5 30t-11 49t18.5 47.5t52 24.5q32 3 56.5 -10.5t37.5 -37.5q19 -37 14.5 -73.5t-21.5 -69t-43 -58.5t-51 -41q-11 6 -19.5 11t-17.5 12t-20.5 16.5t-28.5 26.5q17 19 37.5 34.5t33.5 38.5zM284 -9q-25 7 -37.5 30t-11 49t18.5 47.5t52 24.5
q32 3 56.5 -10.5t37.5 -37.5q19 -37 14.5 -73.5t-21.5 -69t-43 -58.5t-51 -41q-11 6 -19.5 11t-17.5 12t-20.5 16.5t-28.5 26.5q17 19 37.5 34.5t33.5 38.5z" />
    <glyph glyph-name="dagger" unicode="&#x2020;" horiz-adv-x="544" 
d="M306 692q1 -29 3 -69.5t4 -71.5q45 -1 86 -1.5t90 -6.5q-7 -27 -11 -57.5t-8 -48.5q-29 1 -70 1.5t-82 -0.5q2 -109 -2 -215.5t-2 -210.5q-15 -5 -46.5 -6.5t-61.5 -5.5q-4 113 -1 220t-2 213q-43 2 -93.5 -2.5t-93.5 -4.5q-2 6 -3.5 20.5t-2.5 31t-1.5 32.5t-0.5 25
q38 4 90 5.5t99 3.5q2 38 0 75.5t-1 73.5q32 2 63 2t47 -3z" />
    <glyph glyph-name="daggerdbl" unicode="&#x2021;" horiz-adv-x="519" 
d="M297 693q-1 -29 -3.5 -61t1.5 -61q46 0 86 1.5t63 0.5q-2 -31 -2 -59.5t-2 -45.5q-30 -5 -67 -6t-73 -4q2 -48 0.5 -104.5t-3.5 -108.5q35 2 77 8t75 6q2 -33 5 -56t4 -42q-32 -8 -76 -12.5t-85 -9.5q0 -40 -0.5 -70.5t-1.5 -68.5q-23 0 -53.5 0.5t-55.5 2.5v56.5t1 62.5
q-16 -2 -35 -3.5t-38 -3.5t-36.5 -4t-30.5 -3q-5 17 -9.5 47t-9.5 58q13 3 32 5.5t40 4.5t43 4.5t42 5.5q1 60 1.5 118t-1.5 103q-48 -2 -92.5 -7t-85.5 -3q-2 26 -3 51.5t-4 55.5q35 5 81.5 7.5t101.5 6.5q-2 33 -1 67t5 68q17 -2 45 -2.5t65 -4.5z" />
    <glyph glyph-name="bullet" unicode="&#x2022;" horiz-adv-x="362" 
d="M131 469q48 -1 78 -23.5t44 -56t13 -71.5t-15 -70q-10 -23 -30 -34t-44.5 -13t-51 4.5t-50 18.5t-41 28.5t-24.5 35.5q-13 34 -9 66.5t21.5 58t45.5 41t63 15.5z" />
    <glyph glyph-name="ellipsis" unicode="&#x2026;" horiz-adv-x="726" 
d="M96 157q25 0 40.5 -11t22.5 -28t6.5 -37t-7 -38.5t-17.5 -32t-25 -17.5q-23 -7 -47 -3t-41 16t-24.5 31.5t1.5 45.5q11 29 34.5 51.5t56.5 22.5zM319 155q24 10 44.5 0t33.5 -31t17 -48.5t-5 -53.5q-7 -19 -27 -26t-43.5 -4.5t-44.5 11.5t-30 22q-13 19 -13 39t9 38
t25 32t34 21zM575 158q27 2 45 -10.5t27 -33t8.5 -45.5t-9.5 -49q-9 -22 -33 -29.5t-50 -3t-46.5 18.5t-22.5 34q-2 26 4 48t17 37.5t27 24t33 8.5z" />
    <glyph glyph-name="perthousand" unicode="&#x2030;" horiz-adv-x="1025" 
d="M540 728q-32 -89 -73.5 -188.5t-86.5 -205.5q-45 -105 -85.5 -197.5t-78.5 -185.5q-25 6 -54 16t-52 18q36 102 79 196t81 189q40 97 82 199.5t84 201.5q32 -9 61 -21.5t43 -21.5zM128 662q131 9 140 -134q4 -55 -16 -90.5t-54 -46.5q-27 -9 -56.5 -5t-56 16.5
t-46.5 32.5t-27 44q-11 38 -7.5 70.5t18.5 56.5t42 38.5t63 17.5zM106 509q6 -15 24 -23t32 -4q8 2 13 12t6 23t-2.5 25.5t-13.5 19.5q-12 8 -25.5 8t-23.5 -7.5t-14 -21t4 -32.5zM536 367q36 -3 63 -17.5t42 -38.5t18 -56.5t-7 -70.5q-7 -24 -27 -44t-46.5 -32.5t-56 -16.5
t-56.5 5q-34 11 -54 46.5t-16 90.5q9 143 140 134zM558 214q7 19 3.5 32.5t-13.5 21t-23.5 7.5t-25.5 -8q-10 -7 -13.5 -19.5t-2.5 -25.5t6 -23t13 -12q14 -4 32 4t24 23zM842 90q-131 -9 -140 134q-4 55 16 90.5t54 46.5q27 9 56.5 5t56 -16.5t46.5 -32.5t27 -44
q10 -38 7 -70.5t-18 -56.5t-42 -38.5t-63 -17.5zM864 243q-6 15 -24 23t-32 4q-8 -2 -13 -12t-6 -23t2.5 -25.5t13.5 -19.5q12 -8 25.5 -8t23.5 7.5t13.5 21t-3.5 32.5z" />
    <glyph glyph-name="guilsinglleft" unicode="&#x2039;" horiz-adv-x="426" 
d="M340 168q-15 -22 -34 -42t-39 -39q-32 34 -72.5 72t-75.5 74q-29 30 -58 57t-58 60q30 33 59 66.5t59.5 66t63 63t69.5 57.5q12 -8 21.5 -16t18.5 -17t19 -19.5t24 -25.5q-21 -22 -44.5 -42t-46.5 -40t-44.5 -42t-38.5 -48q20 -25 43 -47t46.5 -44t46 -45t41.5 -49z" />
    <glyph glyph-name="guilsinglright" unicode="&#x203a;" horiz-adv-x="401" 
d="M340 307q-33 -29 -65 -60t-63.5 -63t-63.5 -62.5t-67 -57.5q-13 10 -34.5 29.5t-46.5 46.5q21 23 43.5 44l45 42t44.5 43t42 46q-41 54 -86.5 102.5t-85.5 103.5q22 17 44.5 36t44.5 33q60 -72 124.5 -140.5t123.5 -142.5z" />
    <glyph glyph-name="Euro" unicode="&#x20ac;" horiz-adv-x="554" 
d="M458 728q2 -21 1 -52t-3 -53q-34 1 -66.5 -5t-60 -21t-48.5 -40.5t-33 -64.5q29 0 65 -1t70 -4q1 -3 1 -20t-0.5 -36.5t-1 -36t-0.5 -18.5q-33 -2 -72 -1t-75 1q-7 -19 -2 -41q35 -2 70 -2t70 -5q2 -23 -0.5 -55t-4.5 -60q-12 -1 -28 -0.5t-33.5 1t-34.5 1t-30 0.5
q8 -24 27 -40.5t33 -27.5q18 -14 36.5 -20t40 -9t47 -3.5t57.5 -1.5q0 -8 -0.5 -26t-1.5 -37t-2.5 -34t-1.5 -16q-81 -6 -144.5 7.5t-107.5 44.5q-39 28 -70 68.5t-42 92.5q-20 5 -38 4.5t-41 0.5q-5 21 -8.5 55t-4.5 61q15 1 26 1h21t20 -0.5t21 -0.5q-2 12 -1 25.5t3 21.5
q-35 2 -56.5 0.5t-44.5 0.5q-2 23 -6 54t-3 54q28 5 56.5 5t65.5 2q12 55 43 100.5t75 77t99.5 46t117.5 7.5z" />
    <glyph glyph-name="trademark" unicode="&#x2122;" horiz-adv-x="914" 
d="M834 279q-7 -2 -23.5 -3.5t-34 -3.5t-31.5 -3t-17 -1q-5 38 -9 82t-9 92q-8 -49 -17.5 -96t-20.5 -89h-89q-11 38 -19.5 78.5t-16.5 83.5q-4 -44 -6 -85t-3 -76q-5 0 -19.5 -0.5t-31.5 0t-32.5 1t-21.5 1.5q2 53 5.5 114t8 123t9 122t7.5 111q15 1 44 0t64 -1
q13 -55 26.5 -112.5t27.5 -114.5l52 239q10 0 26 0.5t31.5 0.5h29h19.5q7 -52 14 -112t13.5 -121t12.5 -120t11 -110zM2 621v108q39 1 88 1.5t100 1t100.5 0t90.5 -0.5v-105h-28t-36.5 -0.5t-37.5 -0.5h-30q0 -95 -1 -189.5t-8 -183.5l-106 5q7 85 8.5 178.5t-0.5 187.5z
" />
  </font>
</defs>
</svg>
